<?xml version="1.0" standalone="no"?>
<!DOCTYPE svg PUBLIC "-//W3C//DTD SVG 1.1//EN" "http://www.w3.org/Graphics/SVG/1.1/DTD/svg11.dtd" >
<svg xmlns="http://www.w3.org/2000/svg" xmlns:xlink="http://www.w3.org/1999/xlink" version="1.1">
<metadata>
Created by FontForge 20200511 at Thu Sep 13 20:50:45 2018
 By convertio
</metadata>
<defs>
<font id="CircularTabularTT-Book" horiz-adv-x="560" >
  <font-face 
    font-family="Circular Tabular TT Book"
    font-weight="450"
    font-stretch="normal"
    units-per-em="1000"
    panose-1="2 11 6 4 2 1 1 2 1 2"
    ascent="809"
    descent="-191"
    x-height="481"
    cap-height="709"
    bbox="-46 -232 1487 958"
    underline-thickness="80"
    underline-position="-195"
    unicode-range="U+0020-FEFF"
  />
<missing-glyph horiz-adv-x="562" 
d="M80 709h402v-709h-402v709zM159 630v-551h244v551h-244z" />
    <glyph glyph-name="f_f" unicode="ff" horiz-adv-x="659" 
d="M20 396v85h89v81q0 40 12.5 71t34 52t50 31.5t61.5 10.5q24 0 38.5 -4t17.5 -6v-84q-4 2 -13.5 4t-27.5 2q-12 0 -25.5 -3.5t-25 -12.5t-18.5 -25t-7 -41v-76h219v81q0 40 12.5 71t34 52t50 31.5t61.5 10.5q24 0 38.5 -4t17.5 -6v-84q-4 2 -13.5 4t-27.5 2
q-12 0 -25.5 -3.5t-25 -12.5t-18.5 -25t-7 -41v-76h116v-85h-116v-396h-97v396h-219v-396h-97v396h-89z" />
    <glyph glyph-name="f_f_i" unicode="ffi" horiz-adv-x="920" 
d="M109 481v81q0 40 12.5 71t34 52t50 31.5t61.5 10.5q24 0 38.5 -4t17.5 -6v-84q-4 2 -13.5 4t-27.5 2q-12 0 -25.5 -3.5t-25 -12.5t-18.5 -25t-7 -41v-76h219v81q0 40 12.5 71t34 52t50 31.5t61.5 10.5q24 0 38.5 -4t17.5 -6v-84q-4 2 -13.5 4t-27.5 2q-12 0 -25.5 -3.5
t-25 -12.5t-18.5 -25t-7 -41v-76h318v-481h-93v396h-225v-396h-97v396h-219v-396h-97v396h-89v85h89zM726 665q0 29 19.5 48.5t47.5 19.5q29 0 48.5 -19.5t19.5 -48.5q0 -28 -19 -47q-20 -20 -49 -20q-28 0 -47.5 19.5t-19.5 47.5z" />
    <glyph glyph-name="f_f_l" unicode="ffl" horiz-adv-x="920" 
d="M109 481v81q0 40 12.5 71t34 52t50 31.5t61.5 10.5q24 0 38.5 -4t17.5 -6v-84q-4 2 -13.5 4t-27.5 2q-12 0 -25.5 -3.5t-25 -12.5t-18.5 -25t-7 -41v-76h219v81q0 40 12.5 71t34 52t50 31.5t61.5 10.5q24 0 38.5 -4t17.5 -6v-84q-4 2 -13.5 4t-27.5 2q-12 0 -25.5 -3.5
t-25 -12.5t-18.5 -25t-7 -41v-76h225v243h93v-724h-93v396h-225v-396h-97v396h-219v-396h-97v396h-89v85h89z" />
    <glyph glyph-name="f_i" unicode="fi" horiz-adv-x="604" 
d="M206 396v-396h-97v396h-89v85h89v81q0 40 12.5 71t34 52t50 31.5t61.5 10.5q24 0 38.5 -4t17.5 -6v-84q-4 2 -13.5 4t-27.5 2q-12 0 -25.5 -3.5t-25 -12.5t-18.5 -24.5t-7 -40.5v-77h318v-481h-93v396h-225zM526 618q-20 -20 -49 -20q-28 0 -47.5 19.5t-19.5 47.5
q0 29 19.5 48.5t47.5 19.5q29 0 48.5 -19.5t19.5 -48.5q0 -28 -19 -47z" />
    <glyph glyph-name="f_l" unicode="fl" horiz-adv-x="602" 
d="M257 636q-14 -4 -25.5 -13t-18.5 -25t-7 -41v-76h222v243h94v-724h-94v396h-222v-396h-97v396h-89v85h89v81q0 40 12.5 71t34 52t50 31.5t61.5 10.5q24 0 38.5 -4t17.5 -6v-84q-4 2 -13.5 4t-27.5 2q-12 0 -25 -3z" />
    <glyph glyph-name=".notdef" horiz-adv-x="562" 
d="M80 709h402v-709h-402v709zM159 630v-551h244v551h-244z" />
    <glyph glyph-name=".null" horiz-adv-x="0" 
 />
    <glyph glyph-name="nonmarkingreturn" horiz-adv-x="250" 
 />
    <glyph glyph-name="space" unicode=" " 
 />
    <glyph glyph-name="exclam" unicode="!" horiz-adv-x="311" 
d="M122 203l-26 506h118l-25 -506h-67zM202 14q-20 -19 -47 -19t-46 19t-19 46t19 46.5t46 19.5t46.5 -19.5t19.5 -46.5t-19 -46z" />
    <glyph glyph-name="quotedbl" unicode="&#x22;" horiz-adv-x="374" 
d="M40 599q0 27 17 44t44 17q26 0 43 -17t17 -44q0 -8 -2 -18l-42 -188h-34l-41 187q-2 10 -2 19zM334 599q0 -8 -2 -18l-42 -188h-34l-41 187q-2 10 -2 19q0 27 17 44t44 17q26 0 43 -17t17 -44z" />
    <glyph glyph-name="ampersand" unicode="&#x26;" horiz-adv-x="697" 
d="M478 551q0 -26 -8.5 -48.5t-22.5 -42t-32 -36t-37 -30.5l-36 -27l132 -137l158 176v-129l-96 -111l161 -166h-133l-90 94q-44 -49 -91.5 -77.5t-107.5 -28.5q-50 0 -88.5 15.5t-64.5 41t-39 58t-13 66.5t9 61.5t25.5 51t39.5 44t51 41.5l10 8l-13 14q-12 13 -27 29.5
t-28 36.5t-21.5 43t-8.5 49q0 43 16 76t42.5 55.5t59 34t65.5 11.5q40 0 74.5 -12t59.5 -34.5t39.5 -54.5t14.5 -72zM267 311l-36 -27q-26 -20 -43 -45t-17 -62q0 -18 7.5 -35.5t21 -32t33 -23t43.5 -8.5q41 0 72 23t60 55l3 4zM261 635q-16 -6 -28.5 -17.5t-20.5 -27.5
t-8 -37q0 -15 5 -29t13 -26.5t17.5 -23.5t18.5 -20l22 -24l48 36q32 23 42.5 44t10.5 44q0 35 -25.5 60.5t-64.5 25.5q-15 0 -30 -5z" />
    <glyph glyph-name="quotesingle" unicode="'" horiz-adv-x="201" 
d="M159 581l-42 -188h-34l-41 187q-2 10 -2 19q0 27 17 44t44 17q26 0 43 -17t17 -44q0 -8 -2 -18z" />
    <glyph glyph-name="parenleft" unicode="(" horiz-adv-x="302" 
d="M55 317q0 82 14.5 151.5t40 128t60.5 107.5t75 90l57 -50q-77 -86 -121.5 -190.5t-44.5 -236.5t44.5 -237t121.5 -190l-57 -50q-40 41 -75 90t-60.5 107.5t-40 128t-14.5 151.5z" />
    <glyph glyph-name="parenright" unicode=")" horiz-adv-x="302" 
d="M57 794q40 -41 75 -90t60.5 -107.5t40 -128t14.5 -151.5t-14.5 -151.5t-40 -128t-60.5 -107.5t-75 -90l-57 50q76 85 121 190t45 237q0 66 -11.5 125t-33 112t-52.5 100t-69 90z" />
    <glyph glyph-name="asterisk" unicode="*" horiz-adv-x="440" 
d="M281 504l82 -105l-61 -46l-83 109l-78 -108l-61 46l79 104l-124 41l23 72l122 -43v135h79v-134l123 42l23 -72z" />
    <glyph glyph-name="hyphen" unicode="-" horiz-adv-x="361" 
d="M316 328v-82h-271v82h271z" />
    <glyph glyph-name="slash" unicode="/" horiz-adv-x="434" 
d="M0 0l343 709h91l-343 -709h-91z" />
    <glyph glyph-name="question" unicode="?" horiz-adv-x="510" 
d="M35 519q0 34 13 71q13 36 40 66t68.5 49t99.5 19q52 0 93 -17t69 -45t42.5 -64.5t14.5 -74.5q0 -60 -29 -102.5t-73 -71.5l-46 -31q-23 -16 -33.5 -41.5t-10.5 -54.5v-7q0 -4 1 -12h-88q-1 9 -1 17v18q0 50 19 88t64 68l44 30q26 17 39.5 43t13.5 55q0 22 -7.5 42.5
t-22 36.5t-37 25.5t-52.5 9.5q-33 0 -56.5 -11t-38.5 -29t-22.5 -41t-7.5 -47q0 -13 2 -27t5 -22l-97 12q-6 21 -6 48zM174 60q0 27 19 46.5t46 19.5t46.5 -19.5t19.5 -46.5t-19.5 -46t-46.5 -19t-46 19t-19 46z" />
    <glyph glyph-name="at" unicode="@" horiz-adv-x="826" 
d="M647 222q19 15 34 41.5t24 60.5t9 72q0 55 -20 101.5t-56.5 80.5t-88.5 53.5t-115 19.5q-66 0 -122 -23t-97.5 -65t-64.5 -100.5t-23 -130.5q0 -66 21.5 -122t62.5 -97t100 -64t134 -23q55 0 107.5 17t97.5 53l41 -54q-22 -21 -51 -37.5t-61.5 -28t-67 -17.5t-66.5 -6
q-88 0 -161.5 27.5t-126.5 77.5t-82.5 120t-29.5 155q0 87 31 159t84 123.5t123.5 80t149.5 28.5q76 0 141.5 -25t113.5 -68.5t75.5 -103.5t27.5 -130q0 -56 -15 -103.5t-41 -82.5t-60.5 -54.5t-73.5 -19.5q-35 0 -63 15.5t-36 48.5q-23 -32 -55 -49t-64 -17q-34 0 -62 12
t-48.5 34.5t-31.5 54t-11 70.5q0 50 16 93t43.5 74t63.5 48.5t77 17.5q16 0 32.5 -4t31 -12t26 -20.5t17.5 -29.5l9 53h79l-54 -251q-3 -15 -3 -28q0 -17 8.5 -29t29.5 -12t41 16zM444 220q21 12 36.5 33.5t24.5 51.5t10 65q0 45 -21.5 69.5t-62.5 24.5q-27 0 -49 -12.5
t-37.5 -33t-24 -47t-8.5 -54.5q0 -23 4 -43t14 -34.5t26.5 -23t40.5 -8.5q25 0 47 12z" />
    <glyph glyph-name="A" unicode="A" horiz-adv-x="697" 
d="M581 0l-77 198h-314l-75 -198h-105l282 709h113l282 -709h-106zM469 289l-123 318l-121 -318h244z" />
    <glyph glyph-name="B" unicode="B" horiz-adv-x="602" 
d="M338 0h-248v709h231q51 0 90.5 -14.5t67 -40t42 -60.5t14.5 -77q0 -57 -29.5 -96.5t-76.5 -56.5q30 -8 54 -24.5t40.5 -39t25 -50t8.5 -57.5q0 -42 -16 -77.5t-45 -61t-69 -40t-89 -14.5zM425 283q-32 32 -97 32h-140v-229h136q60 0 96.5 30.5t36.5 82.5q0 51 -32 84z
M436 512q0 51 -34.5 81t-95.5 30h-118v-224h122q60 0 93 31.5t33 81.5z" />
    <glyph glyph-name="C" unicode="C" horiz-adv-x="750" 
d="M397 634q-48 0 -93.5 -17.5t-81 -52.5t-56.5 -87.5t-21 -121.5t21 -121.5t56.5 -88t81 -53t93.5 -17.5q45 0 82 13t65.5 35.5t48 54t30.5 67.5l87 -32q-14 -50 -42 -92t-67.5 -72t-91 -47t-112.5 -17q-69 0 -132.5 24.5t-112 71.5t-78 116t-29.5 158t30 157.5t79.5 115.5
t113 71.5t129.5 24.5q61 0 112 -16t91 -45t67.5 -71t41.5 -93l-91 -32q-20 81 -76.5 124t-144.5 43z" />
    <glyph glyph-name="D" unicode="D" horiz-adv-x="720" 
d="M573 90q-47 -45 -108.5 -67.5t-128.5 -22.5h-246v709h248q67 0 128.5 -23t107.5 -68t73.5 -111.5t27.5 -153.5t-27.5 -153t-74.5 -110zM574 353q0 67 -19 117.5t-51.5 84t-76 50.5t-92.5 17h-147v-535h145q49 0 93 16.5t77 49.5t52 83t19 117z" />
    <glyph glyph-name="E" unicode="E" horiz-adv-x="581" 
d="M521 618h-333v-218h302v-92h-302v-217h333v-91h-431v709h431v-91z" />
    <glyph glyph-name="F" unicode="F" horiz-adv-x="551" 
d="M521 618h-333v-228h302v-92h-302v-298h-98v709h431v-91z" />
    <glyph glyph-name="G" unicode="G" horiz-adv-x="765" 
d="M710 510l-89 -38q-24 77 -83 119.5t-142 42.5q-48 0 -93 -17t-80 -52t-56.5 -87.5t-21.5 -122.5q0 -71 20.5 -123.5t55 -87.5t79 -52.5t92.5 -17.5q59 0 100 18.5t67 46.5t38 60.5t14 59.5h-246v88h339v-347h-79l-9 100q-12 -21 -32 -41.5t-48.5 -37t-65 -26.5t-81.5 -10
q-67 0 -129 24t-110 71t-76.5 116t-28.5 159t30 159t79.5 115.5t112.5 70.5t129 24q58 0 108.5 -15.5t91 -43.5t70 -67.5t44.5 -87.5z" />
    <glyph glyph-name="H" unicode="H" horiz-adv-x="738" 
d="M648 0h-98v315h-362v-315h-98v709h98v-303h362v303h98v-709z" />
    <glyph glyph-name="I" unicode="I" horiz-adv-x="280" 
d="M190 709v-709h-100v709h100z" />
    <glyph glyph-name="J" unicode="J" horiz-adv-x="534" 
d="M440 124q-15 -41 -43 -72t-67.5 -49t-88.5 -18q-52 0 -93 16t-69.5 46t-43.5 71.5t-15 92.5v46l98 22v-67q0 -71 34 -103.5t88 -32.5t85 33.5t31 95.5v504h98v-497q0 -47 -14 -88z" />
    <glyph glyph-name="K" unicode="K" horiz-adv-x="668" 
d="M529 0l-240 322l-101 -108v-214h-98v709h98v-365l332 365h129l-295 -316l299 -393h-124z" />
    <glyph glyph-name="L" unicode="L" horiz-adv-x="548" 
d="M90 0v709h98v-617h335v-92h-433z" />
    <glyph glyph-name="M" unicode="M" horiz-adv-x="946" 
d="M759 0v552l-242 -552h-90l-240 552v-552h-97v709h133l250 -577l252 577h131v-709h-97z" />
    <glyph glyph-name="N" unicode="N" horiz-adv-x="763" 
d="M673 0h-102l-383 578v-578h-98v709h131l354 -544v544h98v-709z" />
    <glyph glyph-name="O" unicode="O" horiz-adv-x="802" 
d="M401 724q67 0 131 -24q64 -25 114 -72t80.5 -115.5t30.5 -157.5t-30.5 -158t-80.5 -116t-114 -71.5t-131 -24.5t-131 24.5t-114 71.5t-80.5 116t-30.5 158t30.5 157.5t80.5 115.5t114 71.5t131 24.5zM497 93q46 17 81.5 52.5t57 88t21.5 121.5t-21.5 121.5t-57 87.5
t-82 52.5t-95.5 17.5q-50 0 -96 -17q-46 -18 -81.5 -53t-57 -87.5t-21.5 -121.5t21.5 -121.5t57 -88t81.5 -53t96 -17.5q49 0 96 18z" />
    <glyph glyph-name="P" unicode="P" horiz-adv-x="597" 
d="M551 582q16 -38 16 -83t-16 -83.5t-44 -65.5q-29 -28 -69.5 -44t-89.5 -16h-160v-290h-98v709h258q49 0 89.5 -16t69 -44.5t44.5 -66.5zM188 378h142q64 0 100.5 32.5t36.5 87.5q0 57 -36.5 90t-100.5 33h-142v-243z" />
    <glyph glyph-name="Q" unicode="Q" horiz-adv-x="802" 
d="M757 355q0 -85 -27.5 -150t-72.5 -112l83 -93l-67 -59l-86 95q-42 -26 -89.5 -38.5t-96.5 -12.5q-67 0 -131 24.5t-114 71.5t-80.5 116t-30.5 158t30.5 157.5t80.5 115.5t114 71.5t131 24.5t131 -24.5t114 -71.5t80.5 -115.5t30.5 -157.5zM305 617q-46 -18 -81.5 -53
t-57 -87.5t-21.5 -121.5t21.5 -121.5t57 -88t81.5 -53t96 -17.5q68 0 124 31l-123 138l68 59l124 -140q29 35 46 82.5t17 109.5q0 69 -21.5 121.5t-57 87.5t-82 52.5t-95.5 17.5q-50 0 -96 -17z" />
    <glyph glyph-name="R" unicode="R" horiz-adv-x="619" 
d="M516 648q28 -29 43 -67.5t15 -82.5q0 -77 -45.5 -131.5t-126.5 -69.5l169 -297h-114l-162 290h-106v-290h-99v709h267q50 0 90.5 -16.5t68.5 -44.5zM189 378h150q60 0 97 32.5t37 87.5q0 57 -37 90t-97 33h-150v-243z" />
    <glyph glyph-name="S" unicode="S" horiz-adv-x="593" 
d="M132 226q3 -30 14.5 -57.5t33 -48.5t52 -33.5t70.5 -12.5q73 0 109.5 33t36.5 80q0 38 -26 68.5t-80 41.5l-101 22q-76 17 -124.5 65.5t-48.5 128.5q0 42 18 80t49.5 67t74.5 46.5t92 17.5q60 0 102.5 -16.5t71 -42.5t44.5 -57t22 -60l-88 -31q-3 19 -13 40.5t-28 39.5
t-45 29.5t-64 11.5q-30 0 -55 -9t-43.5 -25t-28.5 -37.5t-10 -46.5q0 -38 23 -65.5t68 -37.5l106 -23q89 -20 136.5 -72t47.5 -127q0 -41 -17 -79t-49 -67t-77 -46.5t-102 -17.5q-64 0 -111.5 19t-80 49t-50.5 67.5t-23 75.5z" />
    <glyph glyph-name="T" unicode="T" horiz-adv-x="592" 
d="M10 618v91h572v-91h-237v-618h-98v618h-237z" />
    <glyph glyph-name="U" unicode="U" horiz-adv-x="670" 
d="M571 131q-20 -48 -54.5 -80.5t-81 -49t-100.5 -16.5t-100.5 16.5t-81 49t-54 80.5t-19.5 111v467h97v-464q0 -81 41.5 -125t116.5 -44t116 44t41 125v464h98v-467q0 -63 -19 -111z" />
    <glyph glyph-name="V" unicode="V" horiz-adv-x="657" 
d="M10 709h104l214 -583l216 583h103l-273 -709h-97z" />
    <glyph glyph-name="W" unicode="W" horiz-adv-x="1004" 
d="M787 0h-101l-185 575l-183 -575h-98l-205 709h101l156 -555l178 555h103l182 -561l153 561h101z" />
    <glyph glyph-name="X" unicode="X" horiz-adv-x="617" 
d="M607 709l-241 -354l238 -355h-117l-179 277l-183 -277h-115l242 355l-240 354h118l179 -278l182 278h116z" />
    <glyph glyph-name="Y" unicode="Y" horiz-adv-x="618" 
d="M608 709l-250 -406v-303h-98v303l-250 406h118l184 -316l184 316h112z" />
    <glyph glyph-name="Z" unicode="Z" horiz-adv-x="632" 
d="M592 0h-547v98l423 520h-413v91h532v-95l-425 -522h430v-92z" />
    <glyph glyph-name="bracketleft" unicode="[" horiz-adv-x="288" 
d="M283 785v-76h-111v-782h111v-75h-193v933h193z" />
    <glyph glyph-name="backslash" unicode="\" horiz-adv-x="434" 
d="M0 709h93l341 -709h-93z" />
    <glyph glyph-name="bracketright" unicode="]" horiz-adv-x="288" 
d="M116 -73v782h-111v76h193v-933h-193v75h111z" />
    <glyph glyph-name="asciicircum" unicode="^" horiz-adv-x="521" 
d="M219 710h83l194 -356h-99l-136 258l-137 -258h-99z" />
    <glyph glyph-name="underscore" unicode="_" horiz-adv-x="542" 
d="M527 0v-79h-512v79h512z" />
    <glyph glyph-name="grave" unicode="`" horiz-adv-x="272" 
d="M34 689h118l86 -146h-78z" />
    <glyph glyph-name="a" unicode="a" horiz-adv-x="523" 
d="M61 187q11 25 30.5 43t46.5 29t58 16l130 19q22 3 29.5 13t7.5 23q0 35 -24.5 60.5t-79.5 25.5q-50 0 -77 -27.5t-32 -69.5l-90 21q4 34 20.5 63t42.5 49.5t60.5 32t73.5 11.5q54 0 92 -14.5t62 -38.5t35 -56t11 -67v-241q0 -32 2 -51t4 -28h-92q-2 9 -3.5 24t-1.5 41
q-8 -13 -21 -27t-32 -26t-44.5 -19.5t-57.5 -7.5q-37 0 -66.5 12t-50.5 31.5t-32.5 45.5t-11.5 55q0 32 11 58zM166 184q-20 -18 -20 -50q0 -27 21 -48.5t57 -21.5q29 0 54.5 7.5t44 24t29.5 44t11 66.5v22l-147 -22q-30 -5 -50 -22z" />
    <glyph glyph-name="b" unicode="b" horiz-adv-x="593" 
d="M329 -13q-54 0 -93.5 22t-62.5 61v-70h-93v724h93v-311q17 32 58 57t101 25q55 0 96 -19.5t69 -54t42 -80.5t14 -98q0 -54 -15 -100.5t-43.5 -81t-70 -54.5t-95.5 -20zM419 118q38 47 38 125t-38 123.5t-104 45.5q-31 0 -57.5 -12t-45.5 -33.5t-29.5 -53t-10.5 -70.5
t10.5 -71t29.5 -54.5t45.5 -34.5t57.5 -12q65 0 104 47z" />
    <glyph glyph-name="c" unicode="c" horiz-adv-x="530" 
d="M474 83q-17 -27 -44 -49t-63.5 -35.5t-83.5 -13.5q-53 0 -97.5 19.5t-76.5 54t-50.5 81t-18.5 101.5q0 56 18.5 103t51 80.5t77 52.5t95.5 19q48 0 84.5 -13.5t63 -35.5t42.5 -49.5t24 -54.5l-85 -36q-5 18 -14 36t-24.5 32.5t-37.5 24t-53 9.5q-29 0 -55 -10.5
t-46.5 -31.5t-32.5 -52.5t-12 -73.5q0 -41 12 -72.5t32 -53t47 -32.5t56 -11q34 0 57.5 10t39 25t24.5 32.5t13 31.5l83 -36q-9 -26 -26 -52z" />
    <glyph glyph-name="d" unicode="d" horiz-adv-x="588" 
d="M510 30q2 -24 3 -30h-91q-2 8 -3.5 25.5t-1.5 39.5v8q-17 -35 -54.5 -60.5t-94.5 -25.5q-53 0 -95 19.5t-71.5 54t-45.5 81t-16 100.5q0 51 16.5 96.5t46.5 80t72 55t93 20.5q32 0 56.5 -7t42.5 -18.5t30 -26t18 -29.5v311h93v-635q0 -35 2 -59zM175 364q-19 -23 -29 -54
t-10 -68t9.5 -68.5t27.5 -54.5t44 -36t60 -13q32 0 58 13.5t44 36.5t27.5 55t9.5 69q0 75 -36.5 121t-101.5 46q-32 0 -58.5 -12.5t-44.5 -34.5z" />
    <glyph glyph-name="e" unicode="e" horiz-adv-x="542" 
d="M502 227q-1 -8 -2 -13h-362q1 -32 12 -59t30.5 -46.5t46 -30t56.5 -10.5q59 0 90 28t45 69l81 -28q-10 -32 -29.5 -59.5t-47 -48t-62.5 -32.5t-77 -12q-48 0 -92 17t-77.5 50t-53 81t-19.5 109q0 57 19 103.5t50.5 80t73.5 52t87 18.5q55 0 98.5 -18.5t72.5 -51.5
t44.5 -79.5t15.5 -102.5v-17zM179 375q-17 -18 -27 -40t-11 -45h263q-2 52 -35 87.5t-97 35.5q-30 0 -53.5 -10.5t-39.5 -27.5z" />
    <glyph glyph-name="f" unicode="f" horiz-adv-x="343" 
d="M232 623q-12 -9 -19 -25t-7 -41v-76h116v-85h-116v-396h-97v396h-89v85h89v81q0 40 12.5 71t34 52t50 31.5t61.5 10.5q24 0 38.5 -4t17.5 -6v-84q-4 2 -13.5 4t-27.5 2q-12 0 -25.5 -3.5t-24.5 -12.5z" />
    <glyph glyph-name="g" unicode="g" horiz-adv-x="578" 
d="M496 -54q-12 -43 -40.5 -76.5t-74.5 -54t-114 -20.5q-45 0 -83.5 13.5t-68 37.5t-48 56.5t-22.5 71.5l91 21q5 -51 40.5 -84.5t90.5 -33.5q76 0 111.5 39t35.5 117v69q-17 -33 -55 -56t-92 -23q-48 0 -88.5 17.5t-70 48t-46 73.5t-16.5 94q0 49 16 91.5t45 74t69.5 50
t90.5 18.5q56 0 93 -20t55 -56v67h93v-445q0 -46 -12 -90zM142 256q0 -71 37.5 -112.5t101.5 -41.5q61 0 99 42t38 112t-38 112t-99 42q-63 0 -101 -42t-38 -112z" />
    <glyph glyph-name="h" unicode="h" horiz-adv-x="562" 
d="M450 441q21 -26 31.5 -61t10.5 -75v-305h-94v289q0 25 -5.5 47t-19 38.5t-35 26t-52.5 9.5q-27 0 -47.5 -10t-34.5 -27t-21.5 -40t-8.5 -50v-283h-94v724h94v-299q26 38 65 54t81 16q43 0 75.5 -14.5t54.5 -39.5z" />
    <glyph glyph-name="i" unicode="i" horiz-adv-x="253" 
d="M80 481h93v-481h-93v481zM175 616q-20 -20 -49 -20q-28 0 -47.5 19.5t-19.5 47.5q0 29 19.5 48.5t47.5 19.5q29 0 48.5 -19.5t19.5 -48.5q0 -28 -19 -47z" />
    <glyph glyph-name="j" unicode="j" horiz-adv-x="254" 
d="M139 -164q-35 -41 -98 -41q-27 0 -39 2.5t-17 4.5v79q4 -1 11.5 -2t18.5 -1q37 0 51 18.5t14 51.5v533h94v-537q0 -66 -35 -108zM194 665q0 -28 -19 -47q-20 -20 -49 -20q-28 0 -47.5 19.5t-19.5 47.5q0 29 19.5 48.5t47.5 19.5q29 0 48.5 -19.5t19.5 -48.5z" />
    <glyph glyph-name="k" unicode="k" horiz-adv-x="525" 
d="M397 0l-157 212l-67 -67v-145h-93v724h93v-456l208 213h130l-205 -203l209 -278h-118z" />
    <glyph glyph-name="l" unicode="l" horiz-adv-x="254" 
d="M174 724v-724h-94v724h94z" />
    <glyph glyph-name="m" unicode="m" horiz-adv-x="857" 
d="M481 291v-291h-94v302q0 47 -24 78.5t-78 31.5q-51 0 -81.5 -34t-30.5 -88v-290h-93v481h90v-64q23 40 63.5 59t82.5 19q45 0 84.5 -22t59.5 -69q29 52 72 71.5t89 19.5q31 0 61 -11t53.5 -33.5t37.5 -57t14 -81.5v-312h-93v302q0 47 -24.5 78.5t-77.5 31.5
q-50 0 -80.5 -34.5t-30.5 -86.5z" />
    <glyph glyph-name="n" unicode="n" horiz-adv-x="562" 
d="M450 441q21 -26 31.5 -61t10.5 -75v-305h-94v289q0 25 -5.5 47t-19 38.5t-35 26t-52.5 9.5q-28 0 -49 -10.5t-35 -28.5t-21 -42t-7 -51v-278h-94v481h92v-69q26 45 66 64t82 19q43 0 75.5 -14.5t54.5 -39.5z" />
    <glyph glyph-name="o" unicode="o" horiz-adv-x="572" 
d="M286 -15q-54 0 -99 20q-45 19 -78 53t-51 81t-18 102t18 101.5t51 80.5t78 53.5t99 19.5t99 -19q45 -20 78 -54t51 -80.5t18 -101.5t-18 -102t-51 -81t-78 -53.5t-99 -19.5zM286 69q30 0 57 11t48 33t33 54t12 74t-12 73.5t-33 53.5t-48 33t-57 11t-57 -11t-48 -33
t-33 -53.5t-12 -73.5t12 -74t33 -54t48 -33t57 -11z" />
    <glyph glyph-name="p" unicode="p" horiz-adv-x="593" 
d="M553 241q0 -54 -15 -100t-44 -80.5t-70.5 -54t-94.5 -19.5q-56 0 -96 23t-60 55v-255h-93v671h91v-75q20 36 61 61t100 25q54 0 95.5 -19.5t69 -53.5t42 -80t14.5 -98zM211 361q-19 -23 -29 -53.5t-10 -66.5q0 -37 10 -68.5t29 -54t46 -34.5q26 -13 58 -13q33 0 59 12.5
t44.5 35t28.5 54t10 68.5q0 36 -10 66.5t-28 53t-44.5 35.5t-59.5 13q-32 0 -58.5 -13t-45.5 -35z" />
    <glyph glyph-name="q" unicode="q" horiz-adv-x="581" 
d="M511 -190h-93v258q-19 -37 -57.5 -59t-92.5 -22q-52 0 -94 20t-72 55t-46 81t-16 99q0 51 15.5 96.5t44.5 80t71 54.5t95 20q31 0 56 -7.5t44.5 -19.5t32.5 -27.5t21 -31.5v74h91v-671zM219 83q26 -13 58 -13t58 13t45 36t29 54.5t10 68.5t-10 68t-29 53t-45 34.5
t-58 12.5q-66 0 -103.5 -46.5t-37.5 -121.5q0 -37 10 -68.5t28.5 -54.5t44.5 -36z" />
    <glyph glyph-name="r" unicode="r" horiz-adv-x="367" 
d="M80 0v481h92v-84q13 28 30.5 45.5t36.5 28t39 14.5t38 4q10 0 18.5 -1t12.5 -2v-100q-21 3 -41 3q-59 0 -95.5 -34.5t-36.5 -113.5v-241h-94z" />
    <glyph glyph-name="s" unicode="s" horiz-adv-x="452" 
d="M404 367l-83 -31q-2 9 -7 23t-16 26.5t-30 21.5t-47 9q-36 0 -58 -19.5t-22 -44.5q0 -46 55 -58l78 -17q66 -14 99.5 -51.5t33.5 -91.5q0 -26 -11 -52t-32.5 -48t-54.5 -35.5t-78 -13.5q-50 0 -85.5 14t-59 35t-36 45.5t-15.5 45.5l85 30q5 -38 33 -64t79 -26q40 0 61 19
t21 45q0 23 -16 39t-46 23l-82 18q-57 12 -88.5 48t-31.5 87q0 31 13.5 58.5t36.5 48.5t54.5 33t66.5 12q49 0 82.5 -14t54.5 -34.5t31.5 -42.5t14.5 -38z" />
    <glyph glyph-name="t" unicode="t" horiz-adv-x="355" 
d="M246 -5q-62 0 -98 35.5t-36 101.5v264h-92v85h26q39 0 56.5 21t17.5 53v78h86v-152h104v-85h-104v-250q0 -33 15 -49.5t52 -16.5q9 0 20 1t17 3v-80q-6 -2 -23 -5.5t-41 -3.5z" />
    <glyph glyph-name="u" unicode="u" horiz-adv-x="566" 
d="M392 481h94v-392q0 -29 1.5 -52.5t3.5 -36.5h-90q-2 8 -3 25.5t-1 32.5q-20 -38 -60 -55.5t-82 -17.5t-75.5 15t-56.5 41t-35.5 61t-12.5 76v303h94v-289q0 -25 6 -47.5t19 -39.5t33.5 -27t50.5 -10q57 0 85.5 34t28.5 89v290z" />
    <glyph glyph-name="v" unicode="v" horiz-adv-x="502" 
d="M10 481h106l137 -371l138 371h101l-192 -481h-95z" />
    <glyph glyph-name="w" unicode="w" horiz-adv-x="793" 
d="M622 0h-97l-128 366l-125 -366h-99l-158 481h103l108 -362l125 362h97l125 -362l106 362h99z" />
    <glyph glyph-name="x" unicode="x" horiz-adv-x="491" 
d="M189 245l-173 236h114l118 -169l116 169h111l-171 -236q7 -10 21 -29t31.5 -43t36 -50.5t36 -50.5t31.5 -43t21 -29h-113l-124 177l-122 -177h-112z" />
    <glyph glyph-name="y" unicode="y" horiz-adv-x="523" 
d="M217 53l-207 428h108l150 -332l144 332h101l-313 -682h-103z" />
    <glyph glyph-name="z" unicode="z" horiz-adv-x="466" 
d="M426 0h-386v82l264 314h-260v85h377v-82l-264 -314h269v-85z" />
    <glyph glyph-name="braceleft" unicode="{" horiz-adv-x="353" 
d="M237 32q0 -55 21 -80t77 -25h13v-75h-13q-88 0 -134 46t-46 140v136q0 28 -9 47t-24 31t-35 17.5t-42 5.5v86q22 0 42 5.5t35 17.5t24 31t9 47v137q0 94 46 140t134 46h13v-75h-13q-56 0 -77 -25t-21 -80v-164q0 -51 -28 -82.5t-76 -40.5q48 -9 76 -40.5t28 -82.5v-163z
" />
    <glyph glyph-name="bar" unicode="|" horiz-adv-x="262" 
d="M172 785v-933h-82v933h82z" />
    <glyph glyph-name="braceright" unicode="}" horiz-adv-x="353" 
d="M198 599v-137q0 -28 9 -47t24 -31t35 -17.5t42 -5.5v-86q-22 0 -42 -5.5t-35 -17.5t-24 -31t-9 -47v-136q0 -94 -46 -140t-134 -46h-13v75h13q56 0 77 25t21 80v163q0 51 28 82.5t76 40.5q-48 9 -76 40.5t-28 82.5v164q0 55 -21 80t-77 25h-13v75h13q88 0 134 -46
t46 -140z" />
    <glyph glyph-name="asciitilde" unicode="~" horiz-adv-x="570" 
d="M35 268q28 46 67 70.5t85 24.5q23 0 47 -6t48 -20l46 -25q28 -16 57 -16q28 0 52 14.5t41 40.5l57 -46q-28 -46 -66.5 -69.5t-83.5 -23.5q-48 0 -97 27l-46 25q-29 15 -54 15q-28 0 -52 -15.5t-44 -41.5z" />
    <glyph glyph-name="uni00A0" unicode="&#xa0;" horiz-adv-x="250" 
 />
    <glyph glyph-name="exclamdown" unicode="&#xa1;" horiz-adv-x="277" 
d="M172 288l25 -505h-118l26 505h67zM185 384q-20 -19 -47 -19t-46 19t-19 46t19 46.5t46 19.5t46.5 -19.5t19.5 -46.5t-19 -46z" />
    <glyph glyph-name="brokenbar" unicode="&#xa6;" horiz-adv-x="262" 
d="M172 785v-399h-82v399h82zM90 -148v399h82v-399h-82z" />
    <glyph glyph-name="dieresis" unicode="&#xa8;" horiz-adv-x="379" 
d="M242 662q-17 -17 -17 -41q0 -25 16.5 -41.5t41.5 -16.5q24 0 41 16.5t17 41.5q0 24 -17 41t-41 17q-25 0 -41 -17zM38 621q0 -25 17 -41q16 -17 40 -17q25 0 42 16.5t17 41.5q0 24 -17 41t-42 17q-24 0 -40.5 -17t-16.5 -41z" />
    <glyph glyph-name="copyright" unicode="&#xa9;" horiz-adv-x="821" 
d="M552 15q-67 -30 -143 -30t-142 29.5t-115.5 79.5t-78 117.5t-28.5 143.5t28.5 143t78 117.5t115.5 79.5t142 29t143 -29t116.5 -79.5t78.5 -117.5t29 -143t-29 -143.5t-78.5 -117.5t-116.5 -79zM521 629q-52 22 -112 22t-112 -22.5t-91 -62.5t-61 -94t-22 -117t22 -117.5
t61 -94t91 -62.5t112 -23t112 23t91 62.5t61 94.5q22 54 22 117t-22 117t-61 94t-91 63zM516 411q-4 14 -11 29t-20 26.5t-31 19.5t-43 8q-23 0 -44.5 -8.5t-38 -26t-26.5 -43t-10 -59.5t10 -59.5t26 -43t38 -26.5t46 -9q28 0 47 8t31.5 20.5t20 26.5t10.5 26l68 -30
q-7 -21 -21 -42.5t-36 -39.5t-52 -29t-68 -11q-43 0 -79.5 16t-62.5 44t-41 66t-15 83t15 83.5t41.5 66t63 43t77.5 15.5q39 0 69 -11t51.5 -29t34.5 -40.5t20 -44.5z" />
    <glyph glyph-name="ordfeminine" unicode="&#xaa;" horiz-adv-x="428" 
d="M96 472q30 26 73 32l88 12q15 2 20.5 9t5.5 16q0 23 -16 39.5t-52 16.5q-33 0 -51.5 -18.5t-21.5 -46.5l-69 16q2 23 13 43t29.5 35t43.5 24t55 9q39 0 66 -10.5t44.5 -27.5t25 -40t7.5 -48v-169q0 -17 1.5 -34.5t2.5 -20.5h-71q-2 6 -3 17t-1 27q-11 -19 -37 -36.5
t-68 -17.5q-27 0 -48 8.5t-36 22.5t-23 32.5t-8 38.5q0 45 30 71zM141 405q0 -18 14 -32q13 -14 38 -14q18 0 34.5 4.5t29 15.5t19.5 29t7 44v15l-95 -15q-20 -3 -33.5 -14t-13.5 -33z" />
    <glyph glyph-name="guillemotleft" unicode="&#xab;" horiz-adv-x="471" 
d="M358 481h93l-131 -191l131 -191h-93l-133 191zM163 481h93l-131 -191l131 -191h-93l-133 191z" />
    <glyph glyph-name="uni00AD" unicode="&#xad;" horiz-adv-x="361" 
d="M316 328v-82h-271v82h271z" />
    <glyph glyph-name="registered" unicode="&#xae;" horiz-adv-x="821" 
d="M669 616q49 -51 78 -118t29 -143t-29 -143.5t-78.5 -117.5t-116.5 -79q-67 -30 -143 -30t-142 29.5t-115.5 79.5t-78 117.5t-28.5 143.5t28.5 143t78 117.5t115.5 79.5t142 29t143 -29t117 -79zM612 144q39 39 61 93.5t22 117.5t-22 117t-61 94t-91 63q-52 22 -112 22
t-112 -22.5t-91 -62.5t-61 -94t-22 -117t22 -117.5t61 -94t91 -62.5t112 -23t112 23t91 63zM474 314l90 -157h-87l-84 150h-30v-150h-76v402h139q29 0 54 -9.5t43 -26.5t28.5 -40t10.5 -50q0 -42 -24.5 -74t-63.5 -45zM467 389q18 15 18 43q0 61 -70 61h-52v-120h52
q34 0 52 16z" />
    <glyph glyph-name="macron" unicode="&#xaf;" horiz-adv-x="343" 
d="M308 658v-81h-273v81h273z" />
    <glyph glyph-name="degree" unicode="&#xb0;" horiz-adv-x="371" 
d="M298 614q22 -22 35 -50.5t13 -61.5t-13 -62t-35 -50.5t-51 -33.5q-30 -12 -62 -12t-61 12t-51 33.5t-35 50.5t-13 62t13 61.5t35 50t51 33.5t61 12t61.5 -12t51.5 -33zM262 502q0 34 -22 56t-55 22q-32 0 -54.5 -22t-22.5 -56q0 -35 22.5 -57t54.5 -22q33 0 55 22t22 57z
" />
    <glyph glyph-name="twosuperior" unicode="&#xb2;" horiz-adv-x="389" 
d="M165 429q-9 -9 -11 -20h175v-65h-268v13q0 45 20 81.5t65 63.5l60 37q43 26 43 63q0 20 -14 35t-40 15t-41.5 -16t-15.5 -42q0 -3 0.5 -11t2.5 -15h-74q-2 8 -2.5 16.5t-0.5 14.5q0 24 9 45t26 37t41.5 25.5t55.5 9.5t55 -9.5t41 -25t26 -36.5t9 -44q0 -35 -19 -62.5
t-51 -47.5l-72 -45q-11 -8 -20 -17z" />
    <glyph glyph-name="threesuperior" unicode="&#xb3;" horiz-adv-x="412" 
d="M207 336q-33 0 -58 9t-43.5 23t-30 32.5t-15.5 38.5l67 27q5 -29 26.5 -46.5t52.5 -17.5t49.5 16t18.5 39q0 31 -21.5 43.5t-46.5 12.5q-8 0 -15.5 -1t-12.5 -3l-29 56l95 79h-171v65h271v-63l-100 -80q21 -2 40.5 -9.5t34.5 -21t24 -33.5t9 -45t-10.5 -47t-29.5 -38.5
t-45.5 -26t-59.5 -9.5z" />
    <glyph glyph-name="acute" unicode="&#xb4;" horiz-adv-x="274" 
d="M35 543l87 146h118l-126 -146h-79z" />
    <glyph glyph-name="mu" unicode="&#xb5;" horiz-adv-x="571" 
d="M397 481h94v-392q0 -29 1.5 -54t3.5 -35h-90q-2 8 -3 25.5t-1 32.5q-20 -38 -60 -55.5t-82 -17.5q-27 0 -47.5 5.5t-38.5 14.5v-195h-94v671h94v-289q0 -25 6 -47.5t19 -39.5t33.5 -27t50.5 -10q57 0 85.5 34t28.5 89v290z" />
    <glyph glyph-name="paragraph" unicode="&#xb6;" horiz-adv-x="626" 
d="M504 -201h-83v829h-93v-829h-83v522h-16q-39 0 -74.5 14.5t-62 40t-42 60.5t-15.5 75q0 48 18 85t49 62t72 38t87 13h340v-81h-97v-829z" />
    <glyph glyph-name="periodcentered" unicode="&#xb7;" horiz-adv-x="279" 
d="M139 354q29 0 49.5 -20.5t20.5 -49.5t-20.5 -49t-49.5 -20t-49 20t-20 49t20 49.5t49 20.5z" />
    <glyph glyph-name="cedilla" unicode="&#xb8;" horiz-adv-x="294" 
d="M195 -211q-23 -7 -53 -7q-38 0 -66.5 14t-43.5 32l37 45q9 -10 27.5 -22t44.5 -12q18 0 32.5 8t14.5 25q0 14 -11.5 23t-32.5 9q-16 0 -29 -5l-33 39l48 76h71l-39 -60q42 0 69.5 -22t27.5 -60q0 -18 -7 -34t-21 -28.5t-36 -20.5z" />
    <glyph glyph-name="onesuperior" unicode="&#xb9;" horiz-adv-x="293" 
d="M50 589v52q37 1 62 20.5t30 47.5h71v-365h-77v245h-86z" />
    <glyph glyph-name="ordmasculine" unicode="&#xba;" horiz-adv-x="484" 
d="M368 608q23 -24 36 -57t13 -72t-13 -72t-36.5 -57t-55.5 -37q-32 -14 -70 -14t-70.5 13.5t-55.5 37.5t-36 57t-13 72t13 72t36 57t55.5 37.5t70.5 13.5t70 -13.5t56 -37.5zM341 479q0 56 -30 84t-69 28q-40 0 -70 -28t-30 -84t30 -84.5t70 -28.5q39 0 69 28.5t30 84.5z
" />
    <glyph glyph-name="guillemotright" unicode="&#xbb;" horiz-adv-x="471" 
d="M215 99l131 191l-131 191h93l133 -191l-133 -191h-93zM113 481l133 -191l-133 -191h-93l131 191l-131 191h93z" />
    <glyph glyph-name="onequarter" unicode="&#xbc;" horiz-adv-x="780" 
d="M55 528v52q37 1 62 20.5t30 47.5h71v-365h-77v245h-86zM81 0l466 648h90l-464 -648h-92zM666 1h-77v72h-185v73l177 220h85v-228h64v-65h-64v-72zM589 138v139l-111 -139h111z" />
    <glyph glyph-name="onehalf" unicode="&#xbd;" horiz-adv-x="779" 
d="M80 0l466 648h90l-464 -648h-92zM55 528v52q37 1 62 20.5t30 47.5h71v-365h-77v245h-86zM567 86q-9 -9 -11 -20h175v-65h-268v13q0 45 20 81.5t65 63.5l60 37q43 26 43 63q0 20 -14 35t-40 15t-41.5 -16t-15.5 -42q0 -3 0.5 -11t2.5 -15h-74q-2 8 -2.5 16.5t-0.5 14.5
q0 24 9 45t26 37t41.5 25.5t55.5 9.5t55 -9.5t41 -25t26 -36.5t9 -44q0 -35 -19 -62.5t-51 -47.5l-72 -45q-11 -8 -20 -17z" />
    <glyph glyph-name="threequarters" unicode="&#xbe;" horiz-adv-x="850" 
d="M169 0l466 648h90l-464 -648h-92zM203 275q-33 0 -58 9t-43.5 23t-30 32.5t-15.5 38.5l67 27q5 -29 26.5 -46.5t52.5 -17.5t49.5 16t18.5 39q0 31 -21.5 43.5t-46.5 12.5q-8 0 -15.5 -1t-12.5 -3l-29 56l95 79h-171v65h271v-63l-100 -80q21 -2 40.5 -9.5t34.5 -21
t24 -33.5t9 -45t-10.5 -47t-29.5 -38.5t-45.5 -26t-59.5 -9.5zM736 1h-77v72h-185v73l177 220h85v-228h64v-65h-64v-72zM659 138v139l-111 -139h111z" />
    <glyph glyph-name="questiondown" unicode="&#xbf;" horiz-adv-x="510" 
d="M20 -31q0 60 29 102.5t73 71.5l46 31q23 16 33.5 41.5t10.5 54.5v10q0 4 -1 9h88q1 -9 1 -17v-18q0 -50 -19 -88t-64 -68l-44 -30q-26 -17 -39.5 -43t-13.5 -55q0 -22 7.5 -42.5t22 -36.5t37 -25.5t52.5 -9.5q33 0 56.5 11t38.5 29t22.5 41t7.5 47q0 13 -2 27t-5 22
l97 -12q6 -21 6 -48q0 -35 -13 -71t-40 -66t-68.5 -49t-99.5 -19q-53 0 -93.5 17t-68.5 45t-42.5 64.5t-14.5 74.5zM189 431q0 27 20 46q19 19 46 19t46 -19t19 -46t-19 -46.5t-46 -19.5t-46.5 19.5t-19.5 46.5z" />
    <glyph glyph-name="Agrave" unicode="&#xc0;" horiz-adv-x="697" 
d="M581 0l-77 198h-314l-75 -198h-105l282 709h113l282 -709h-106zM469 289l-123 318l-121 -318h244zM163 878h129l102 -119h-93z" />
    <glyph glyph-name="Aacute" unicode="&#xc1;" horiz-adv-x="697" 
d="M581 0l-77 198h-314l-75 -198h-105l282 709h113l282 -709h-106zM469 289l-123 318l-121 -318h244zM300 759l101 119h130l-137 -119h-94z" />
    <glyph glyph-name="Acircumflex" unicode="&#xc2;" horiz-adv-x="697" 
d="M581 0l-77 198h-314l-75 -198h-105l282 709h113l282 -709h-106zM469 289l-123 318l-121 -318h244zM284 878h120l117 -119h-92l-85 64l-81 -64h-91z" />
    <glyph glyph-name="Atilde" unicode="&#xc3;" horiz-adv-x="697" 
d="M581 0l-77 198h-314l-75 -198h-105l282 709h113l282 -709h-106zM469 289l-123 318l-121 -318h244zM430 846q9 7 9 27v8h67v-16q0 -56 -27 -83.5t-69 -27.5q-22 0 -39 6t-32 17l-15 10q-10 6 -18.5 10t-18.5 4q-16 0 -25.5 -10.5t-9.5 -33.5h-68v16q0 56 27.5 83.5
t69.5 27.5q21 0 39.5 -7t33.5 -16l15 -9q11 -6 19.5 -10t18.5 -4q13 0 23 8z" />
    <glyph glyph-name="Adieresis" unicode="&#xc4;" horiz-adv-x="697" 
d="M687 0h-106l-77 198h-314l-75 -198h-105l282 709h113zM469 289l-123 318l-121 -318h244zM450 861q17 17 42 17t42 -17t17 -42t-17 -42t-42 -17t-42 17t-17 42t17 42zM142 819q0 25 17 42t42 17t42 -17t17 -42t-17 -42t-42 -17t-42 17t-17 42z" />
    <glyph glyph-name="Aring" unicode="&#xc5;" horiz-adv-x="697" 
d="M394 872q22 -10 38.5 -26t26.5 -38.5t10 -47.5q0 -29 -13 -53t-34 -41l265 -666h-106l-77 198h-314l-75 -198h-105l264 664q-23 17 -36.5 41.5t-13.5 54.5q0 25 10 47.5t26.5 38.5t39 25.5t46.5 9.5q25 0 48 -9zM346 607l-121 -318h244zM309 724q14 -15 35 -15
q23 0 38 14.5t15 36.5q0 21 -15 36.5t-38 15.5q-21 0 -35.5 -15.5t-14.5 -36.5q0 -22 15 -36z" />
    <glyph glyph-name="AE" unicode="&#xc6;" horiz-adv-x="1026" 
d="M935 308h-302v-217h333v-91h-431v196h-278l-126 -196h-126l472 709h489v-91h-333v-218h302v-92zM535 284v344l-222 -344h222z" />
    <glyph glyph-name="Ccedilla" unicode="&#xc7;" horiz-adv-x="750" 
d="M45 355q0 89 30 157.5t79.5 115.5t113 71.5t129.5 24.5q61 0 112 -16t91 -45t67.5 -71t41.5 -93l-91 -32q-20 81 -76.5 124t-144.5 43q-48 0 -93.5 -17.5t-81 -52.5t-56.5 -87.5t-21 -121.5t21 -121.5t56.5 -88t81 -53t93.5 -17.5q44 0 81 13t65.5 35.5t48.5 54t31 67.5
l87 -32q-13 -45 -38 -84t-59.5 -68.5t-78.5 -48.5t-95 -25l-21 -33q42 0 69.5 -22t27.5 -60q0 -18 -7 -34t-21 -28.5t-36.5 -20t-52.5 -7.5q-38 0 -66.5 14t-43.5 32l37 45q9 -10 27.5 -22t44.5 -12q18 0 32.5 8t14.5 25q0 14 -11.5 23t-32.5 9q-16 0 -29 -5l-33 39l30 48
q-64 5 -122.5 31.5t-103 73.5t-71 113.5t-26.5 150.5z" />
    <glyph glyph-name="Egrave" unicode="&#xc8;" horiz-adv-x="581" 
d="M521 618h-333v-218h302v-92h-302v-217h333v-91h-431v709h431v-91zM149 878h129l102 -119h-93z" />
    <glyph glyph-name="Eacute" unicode="&#xc9;" horiz-adv-x="581" 
d="M521 618h-333v-218h302v-92h-302v-217h333v-91h-431v709h431v-91zM234 759l101 119h130l-137 -119h-94z" />
    <glyph glyph-name="Ecircumflex" unicode="&#xca;" horiz-adv-x="581" 
d="M521 618h-333v-218h302v-92h-302v-217h333v-91h-431v709h431v-91zM243 878h120l117 -119h-92l-85 64l-81 -64h-91z" />
    <glyph glyph-name="Edieresis" unicode="&#xcb;" horiz-adv-x="581" 
d="M521 618h-333v-218h302v-92h-302v-217h333v-91h-431v709h431v-91zM133 819q0 -25 17 -42t42 -17t42 17t17 42t-17 42t-42 17t-42 -17t-17 -42zM381 861q-17 -17 -17 -42t17 -42t42 -17t42 17t17 42t-17 42t-42 17t-42 -17z" />
    <glyph glyph-name="Igrave" unicode="&#xcc;" horiz-adv-x="280" 
d="M190 709v-709h-100v709h100zM-44 878h129l102 -119h-93z" />
    <glyph glyph-name="Iacute" unicode="&#xcd;" horiz-adv-x="280" 
d="M190 709v-709h-100v709h100zM94 759l101 119h130l-137 -119h-94z" />
    <glyph glyph-name="Icircumflex" unicode="&#xce;" horiz-adv-x="280" 
d="M190 709v-709h-100v709h100zM85 878h120l117 -119h-92l-85 64l-81 -64h-91z" />
    <glyph glyph-name="Idieresis" unicode="&#xcf;" horiz-adv-x="280" 
d="M190 709v-709h-100v709h100zM12 819q0 -23 15 -38q15 -16 38 -16t38.5 15.5t15.5 38.5t-15.5 38t-38.5 15t-38 -15t-15 -38zM181 857q-16 -15 -16 -38t15.5 -38.5t38.5 -15.5t38 15.5t15 38.5t-15 38t-38 15t-38 -15z" />
    <glyph glyph-name="Eth" unicode="&#xd0;" horiz-adv-x="724" 
d="M340 0h-246v325h-76v82h76v302h248q67 0 128.5 -23t107.5 -68t73.5 -111.5t27.5 -153.5t-27.5 -153t-74.5 -110.5t-108.5 -67t-128.5 -22.5zM507 153q33 33 52 83t19 117t-19 117.5t-51.5 84t-76 50.5t-92.5 17h-147v-215h122v-82h-122v-238h145q49 0 93 16.5t77 49.5z
" />
    <glyph glyph-name="Ntilde" unicode="&#xd1;" horiz-adv-x="763" 
d="M673 0h-102l-383 578v-578h-98v709h131l354 -544v544h98v-709zM467 846q9 7 9 27v8h67v-16q0 -56 -27 -83.5t-69 -27.5q-22 0 -39 6t-32 17l-15 10q-10 6 -18.5 10t-18.5 4q-16 0 -25.5 -10.5t-9.5 -33.5h-68v16q0 56 27.5 83.5t69.5 27.5q21 0 39.5 -7t33.5 -16l15 -9
q11 -6 19.5 -10t18.5 -4q13 0 23 8z" />
    <glyph glyph-name="Ograve" unicode="&#xd2;" horiz-adv-x="802" 
d="M401 724q67 0 131 -24q64 -25 114 -72t80.5 -115.5t30.5 -157.5t-30.5 -158t-80.5 -116t-114 -71.5t-131 -24.5t-131 24.5t-114 71.5t-80.5 116t-30.5 158t30.5 157.5t80.5 115.5t114 71.5t131 24.5zM497 93q46 17 81.5 52.5t57 88t21.5 121.5t-21.5 121.5t-57 87.5
t-82 52.5t-95.5 17.5q-50 0 -96 -17q-46 -18 -81.5 -53t-57 -87.5t-21.5 -121.5t21.5 -121.5t57 -88t81.5 -53t96 -17.5q49 0 96 18zM223 878h129l102 -119h-93z" />
    <glyph glyph-name="Oacute" unicode="&#xd3;" horiz-adv-x="802" 
d="M401 724q67 0 131 -24q64 -25 114 -72t80.5 -115.5t30.5 -157.5t-30.5 -158t-80.5 -116t-114 -71.5t-131 -24.5t-131 24.5t-114 71.5t-80.5 116t-30.5 158t30.5 157.5t80.5 115.5t114 71.5t131 24.5zM497 93q46 17 81.5 52.5t57 88t21.5 121.5t-21.5 121.5t-57 87.5
t-82 52.5t-95.5 17.5q-50 0 -96 -17q-46 -18 -81.5 -53t-57 -87.5t-21.5 -121.5t21.5 -121.5t57 -88t81.5 -53t96 -17.5q49 0 96 18zM346 759l101 119h130l-137 -119h-94z" />
    <glyph glyph-name="Ocircumflex" unicode="&#xd4;" horiz-adv-x="802" 
d="M401 724q67 0 131 -24q64 -25 114 -72t80.5 -115.5t30.5 -157.5t-30.5 -158t-80.5 -116t-114 -71.5t-131 -24.5t-131 24.5t-114 71.5t-80.5 116t-30.5 158t30.5 157.5t80.5 115.5t114 71.5t131 24.5zM497 93q46 17 81.5 52.5t57 88t21.5 121.5t-21.5 121.5t-57 87.5
t-82 52.5t-95.5 17.5q-50 0 -96 -17q-46 -18 -81.5 -53t-57 -87.5t-21.5 -121.5t21.5 -121.5t57 -88t81.5 -53t96 -17.5q49 0 96 18zM339 878h120l117 -119h-92l-85 64l-81 -64h-91z" />
    <glyph glyph-name="Otilde" unicode="&#xd5;" horiz-adv-x="802" 
d="M401 724q67 0 131 -24q64 -25 114 -72t80.5 -115.5t30.5 -157.5t-30.5 -158t-80.5 -116t-114 -71.5t-131 -24.5t-131 24.5t-114 71.5t-80.5 116t-30.5 158t30.5 157.5t80.5 115.5t114 71.5t131 24.5zM497 93q46 17 81.5 52.5t57 88t21.5 121.5t-21.5 121.5t-57 87.5
t-82 52.5t-95.5 17.5q-50 0 -96 -17q-46 -18 -81.5 -53t-57 -87.5t-21.5 -121.5t21.5 -121.5t57 -88t81.5 -53t96 -17.5q49 0 96 18zM490 847q9 7 9 27v8h67v-16q0 -56 -27 -83.5t-69 -27.5q-22 0 -39 6t-32 17l-15 10q-10 6 -18.5 10t-18.5 4q-16 0 -25.5 -10.5t-9.5 -33.5
h-68v16q0 56 27.5 83.5t69.5 27.5q21 0 39.5 -7t33.5 -16l15 -9q11 -6 19.5 -10t18.5 -4q13 0 23 8z" />
    <glyph glyph-name="Odieresis" unicode="&#xd6;" horiz-adv-x="802" 
d="M45 355q0 89 31 158q30 68 80 115t114 71.5t131 24.5t131 -24.5t114 -71.5t80.5 -115.5t30.5 -157.5t-30.5 -158t-80.5 -116t-114 -71.5t-131 -24.5t-131 24.5t-114 71.5t-80.5 116t-30.5 158zM145 355q0 -69 21.5 -121.5t57 -88t81.5 -53t96 -17.5q49 0 95.5 17.5t82 53
t57 88t21.5 121.5t-21.5 121.5t-57 87.5t-82 52.5t-95.5 17.5q-50 0 -96 -17.5t-81.5 -52.5t-57 -87.5t-21.5 -121.5zM515 861q17 17 42 17t42 -17t17 -42t-17 -42t-42 -17t-42 17t-17 42t17 42zM187 819q0 25 17 42t42 17t42 -17t17 -42t-17 -42t-42 -17t-42 17t-17 42z
" />
    <glyph glyph-name="Oslash" unicode="&#xd8;" horiz-adv-x="802" 
d="M45 355q0 89 30.5 157.5t80.5 115.5t114 71.5t131 24.5q51 0 99.5 -14t91.5 -41l72 92l68 -52l-73 -94q45 -47 71.5 -112t26.5 -148q0 -89 -30.5 -158t-80.5 -116t-114 -71.5t-131 -24.5q-50 0 -98 13.5t-91 39.5l-68 -89l-70 51l71 92q-45 47 -72.5 112.5t-27.5 150.5z
M167 477q-22 -53 -22 -122q0 -60 15.5 -106.5t43.5 -81.5l332 429q-61 38 -135 38q-50 0 -96 -17.5t-81.5 -52.5t-56.5 -87zM332 84q34 -9 69 -9q49 0 95.5 17.5t82 53t57 88t21.5 121.5q0 58 -15.5 103.5t-41.5 80.5l-332 -429q30 -18 64 -26z" />
    <glyph glyph-name="Ugrave" unicode="&#xd9;" horiz-adv-x="670" 
d="M571 131q-20 -48 -54.5 -80.5t-81 -49t-100.5 -16.5t-100.5 16.5t-81 49t-54 80.5t-19.5 111v467h97v-464q0 -81 41.5 -125t116.5 -44t116 44t41 125v464h98v-467q0 -63 -19 -111zM173 878h129l102 -119h-93z" />
    <glyph glyph-name="Uacute" unicode="&#xda;" horiz-adv-x="670" 
d="M571 131q-20 -48 -54.5 -80.5t-81 -49t-100.5 -16.5t-100.5 16.5t-81 49t-54 80.5t-19.5 111v467h97v-464q0 -81 41.5 -125t116.5 -44t116 44t41 125v464h98v-467q0 -63 -19 -111zM263 759l101 119h130l-137 -119h-94z" />
    <glyph glyph-name="Ucircumflex" unicode="&#xdb;" horiz-adv-x="670" 
d="M571 131q-20 -48 -54.5 -80.5t-81 -49t-100.5 -16.5t-100.5 16.5t-81 49t-54 80.5t-19.5 111v467h97v-464q0 -81 41.5 -125t116.5 -44t116 44t41 125v464h98v-467q0 -63 -19 -111zM273 878h120l117 -119h-92l-85 64l-81 -64h-91z" />
    <glyph glyph-name="Udieresis" unicode="&#xdc;" horiz-adv-x="670" 
d="M590 242q0 -63 -19.5 -111t-54 -80.5t-81 -49t-100.5 -16.5t-100.5 16.5t-81 49t-54 80.5t-19.5 111v467h97v-464q0 -81 41.5 -125t116.5 -44t116 44t41 125v464h98v-467zM225 760q-25 0 -42 17t-17 42t17 42t42 17t42 -17t17 -42t-17 -42t-42 -17zM387 819q0 25 17 42
t42 17t42 -17t17 -42t-17 -42t-42 -17t-42 17t-17 42z" />
    <glyph glyph-name="Yacute" unicode="&#xdd;" horiz-adv-x="618" 
d="M608 709l-250 -406v-303h-98v303l-250 406h118l184 -316l184 316h112zM236 759l101 119h130l-137 -119h-94z" />
    <glyph glyph-name="Thorn" unicode="&#xde;" horiz-adv-x="592" 
d="M504 513q30 -28 46.5 -66t16.5 -83t-16.5 -83t-46 -65.5t-70.5 -43t-90 -15.5h-156v-157h-98v709h98v-137h155q49 0 90 -16t71 -43zM188 244h144q64 0 99.5 32t35.5 87q0 57 -35.5 89.5t-99.5 32.5h-144v-241z" />
    <glyph glyph-name="germandbls" unicode="&#xdf;" horiz-adv-x="567" 
d="M503 32q-21 -21 -51.5 -34t-72.5 -13q-45 0 -76.5 14t-51 35t-28 45.5t-8.5 46.5l83 22q0 -12 4 -27t13.5 -28t25 -21.5t38.5 -8.5q36 0 53 20t17 39q0 26 -13 43t-39 30l-34 16q-17 8 -35.5 18t-34 25t-25.5 35.5t-10 48.5q0 36 17 62.5t46 45.5l32 21q25 16 41 36.5
t16 48.5q0 36 -28.5 62.5t-81.5 26.5q-26 0 -48.5 -9.5t-40 -28.5t-27.5 -48t-10 -67v-488h-94v493q0 55 17 98t47 72.5t70 45t86 15.5t83.5 -13t64.5 -36t42 -53.5t15 -66.5q0 -29 -7.5 -52t-19.5 -41t-28 -31.5t-33 -23.5l-29 -18q-14 -8 -22.5 -18.5t-8.5 -27.5
q0 -20 12.5 -29t33.5 -19l35 -17q42 -20 73 -57.5t31 -90.5q0 -25 -9.5 -51t-29.5 -47z" />
    <glyph glyph-name="agrave" unicode="&#xe0;" horiz-adv-x="523" 
d="M61 187q11 25 30.5 43t46.5 29t58 16l130 19q22 3 29.5 13t7.5 23q0 35 -24.5 60.5t-79.5 25.5q-50 0 -77 -27.5t-32 -69.5l-90 21q4 34 20.5 63t42.5 49.5t60.5 32t73.5 11.5q54 0 92 -14.5t62 -38.5t35 -56t11 -67v-241q0 -32 2 -51t4 -28h-92q-2 9 -3.5 24t-1.5 41
q-8 -13 -21 -27t-32 -26t-44.5 -19.5t-57.5 -7.5q-37 0 -66.5 12t-50.5 31.5t-32.5 45.5t-11.5 55q0 32 11 58zM166 184q-20 -18 -20 -50q0 -27 21 -48.5t57 -21.5q29 0 54.5 7.5t44 24t29.5 44t11 66.5v22l-147 -22q-30 -5 -50 -22zM109 689h118l86 -146h-78z" />
    <glyph glyph-name="aacute" unicode="&#xe1;" horiz-adv-x="523" 
d="M61 187q11 25 30.5 43t46.5 29t58 16l130 19q22 3 29.5 13t7.5 23q0 35 -24.5 60.5t-79.5 25.5q-50 0 -77 -27.5t-32 -69.5l-90 21q4 34 20.5 63t42.5 49.5t60.5 32t73.5 11.5q54 0 92 -14.5t62 -38.5t35 -56t11 -67v-241q0 -32 2 -51t4 -28h-92q-2 9 -3.5 24t-1.5 41
q-8 -13 -21 -27t-32 -26t-44.5 -19.5t-57.5 -7.5q-37 0 -66.5 12t-50.5 31.5t-32.5 45.5t-11.5 55q0 32 11 58zM166 184q-20 -18 -20 -50q0 -27 21 -48.5t57 -21.5q29 0 54.5 7.5t44 24t29.5 44t11 66.5v22l-147 -22q-30 -5 -50 -22zM220 543l87 146h118l-126 -146h-79z" />
    <glyph glyph-name="acircumflex" unicode="&#xe2;" horiz-adv-x="523" 
d="M61 187q11 25 30.5 43t46.5 29t58 16l130 19q22 3 29.5 13t7.5 23q0 35 -24.5 60.5t-79.5 25.5q-50 0 -77 -27.5t-32 -69.5l-90 21q4 34 20.5 63t42.5 49.5t60.5 32t73.5 11.5q54 0 92 -14.5t62 -38.5t35 -56t11 -67v-241q0 -32 2 -51t4 -28h-92q-2 9 -3.5 24t-1.5 41
q-8 -13 -21 -27t-32 -26t-44.5 -19.5t-57.5 -7.5q-37 0 -66.5 12t-50.5 31.5t-32.5 45.5t-11.5 55q0 32 11 58zM166 184q-20 -18 -20 -50q0 -27 21 -48.5t57 -21.5q29 0 54.5 7.5t44 24t29.5 44t11 66.5v22l-147 -22q-30 -5 -50 -22zM212 684h107l104 -139h-88l-70 81
l-70 -81h-87z" />
    <glyph glyph-name="atilde" unicode="&#xe3;" horiz-adv-x="523" 
d="M61 187q11 25 30.5 43t46.5 29t58 16l130 19q22 3 29.5 13t7.5 23q0 35 -24.5 60.5t-79.5 25.5q-50 0 -77 -27.5t-32 -69.5l-90 21q4 34 20.5 63t42.5 49.5t60.5 32t73.5 11.5q54 0 92 -14.5t62 -38.5t35 -56t11 -67v-241q0 -32 2 -51t4 -28h-92q-2 9 -3.5 24t-1.5 41
q-8 -13 -21 -27t-32 -26t-44.5 -19.5t-57.5 -7.5q-37 0 -66.5 12t-50.5 31.5t-32.5 45.5t-11.5 55q0 32 11 58zM166 184q-20 -18 -20 -50q0 -27 21 -48.5t57 -21.5q29 0 54.5 7.5t44 24t29.5 44t11 66.5v22l-147 -22q-30 -5 -50 -22zM344 644q7 9 7 33h71v-15
q0 -56 -27.5 -82.5t-69.5 -26.5q-20 0 -36 6.5t-30 15.5l-14 9q-10 6 -18.5 10t-18.5 4q-14 0 -21.5 -9t-7.5 -34h-72v15q0 56 28 82.5t70 26.5q20 0 36.5 -6.5t30.5 -15.5l14 -9q10 -6 18 -10t18 -4q15 0 22 10z" />
    <glyph glyph-name="adieresis" unicode="&#xe4;" horiz-adv-x="523" 
d="M61 187q11 25 30.5 43t46.5 29t58 16l130 19q22 3 29.5 13t7.5 23q0 35 -24.5 60.5t-79.5 25.5q-50 0 -77 -27.5t-32 -69.5l-90 21q4 34 20.5 63t42.5 49.5t60.5 32t73.5 11.5q54 0 92 -14.5t62 -38.5t35 -56t11 -67v-241q0 -32 2 -51t4 -28h-92q-2 9 -3.5 24t-1.5 41
q-8 -13 -21 -27t-32 -26t-44.5 -19.5t-57.5 -7.5q-37 0 -66.5 12t-50.5 31.5t-32.5 45.5t-11.5 55q0 32 11 58zM166 184q-20 -18 -20 -50q0 -27 21 -48.5t57 -21.5q29 0 54.5 7.5t44 24t29.5 44t11 66.5v22l-147 -22q-30 -5 -50 -22zM314 662q-17 -17 -17 -41
q0 -25 16.5 -41.5t41.5 -16.5q24 0 41 16.5t17 41.5q0 24 -17 41t-41 17q-25 0 -41 -17zM110 621q0 -25 17 -41q16 -17 40 -17q25 0 42 16.5t17 41.5q0 24 -17 41t-42 17q-24 0 -40.5 -17t-16.5 -41z" />
    <glyph glyph-name="aring" unicode="&#xe5;" horiz-adv-x="523" 
d="M61 187q11 25 30.5 43t46.5 29t58 16l130 19q22 3 29.5 13t7.5 23q0 35 -24.5 60.5t-79.5 25.5q-50 0 -77 -27.5t-32 -69.5l-90 21q4 34 20.5 63t42.5 49.5t60.5 32t73.5 11.5q54 0 92 -14.5t62 -38.5t35 -56t11 -67v-241q0 -32 2 -51t4 -28h-92q-2 9 -3.5 24t-1.5 41
q-8 -13 -21 -27t-32 -26t-44.5 -19.5t-57.5 -7.5q-37 0 -66.5 12t-50.5 31.5t-32.5 45.5t-11.5 55q0 32 11 58zM166 184q-20 -18 -20 -50q0 -27 21 -48.5t57 -21.5q29 0 54.5 7.5t44 24t29.5 44t11 66.5v22l-147 -22q-30 -5 -50 -22zM340 719q15 -15 24 -35t9 -43t-9 -43
t-24 -34.5t-35 -22.5q-21 -9 -44 -9q-22 0 -42 8.5t-35.5 23t-24.5 34.5t-9 43t9 43t24.5 35t35.5 23.5t42 8.5q23 0 43.5 -8.5t35.5 -23.5zM309 641q0 20 -14 34.5t-35 14.5q-20 0 -33.5 -14.5t-13.5 -34.5t13.5 -34t33.5 -14q21 0 35 14t14 34z" />
    <glyph glyph-name="ae" unicode="&#xe6;" horiz-adv-x="874" 
d="M690 -3q-35 -12 -75 -12q-61 0 -113.5 26.5t-86.5 77.5q-11 -19 -27 -37.5t-39 -33.5t-54.5 -24t-72.5 -9t-73 12t-54 31.5t-33.5 45.5t-11.5 55q0 32 11 57.5t30.5 43.5t46.5 29t58 16l139 19q24 4 31 14.5t7 21.5q0 35 -27.5 61t-82.5 26q-51 0 -80.5 -28t-34.5 -66
l-88 17q3 36 22.5 65t48 49.5t63 31t69.5 10.5q62 0 105 -22t66 -58q32 38 76 59t93 21q55 0 98.5 -18.5t72.5 -51.5t44.5 -79.5t15.5 -102.5q0 -7 -0.5 -16.5t-1.5 -13.5h-362q1 -32 12.5 -58.5t31 -46t45.5 -30.5t56 -11q58 0 89 28t45 69l82 -28q-10 -32 -30 -59.5
t-48 -48t-63 -32.5zM168 85q21 -21 61 -21q25 0 50.5 7.5t46.5 24t34 43.5t13 66v23l-157 -22q-32 -5 -51 -23t-19 -51q0 -26 22 -47zM701 378q-34 35 -97 35q-30 0 -53.5 -10.5t-40 -28t-26.5 -39.5t-11 -45h263q-2 52 -35 88z" />
    <glyph glyph-name="ccedilla" unicode="&#xe7;" horiz-adv-x="530" 
d="M59 343q18 47 50.5 81t77 53t95.5 19q48 0 84.5 -13.5t63 -35.5t42.5 -49.5t24 -54.5l-85 -36q-5 18 -14 36t-24.5 32.5t-37.5 24t-53 9.5q-29 0 -55 -11t-46.5 -32t-32.5 -52.5t-12 -72.5t12 -72.5t32 -53t47 -32.5t56 -11q33 0 56.5 10t39 25t25 32.5t13.5 31.5l83 -36
q-8 -23 -22.5 -47t-36 -44t-51 -35t-67.5 -21l-23 -35q42 0 69.5 -22t27.5 -60q0 -35 -28 -61.5t-89 -26.5q-38 0 -66.5 13t-43.5 31l37 45q9 -10 27.5 -22t44.5 -12q18 0 32.5 8t14.5 25q0 14 -11.5 23t-32.5 9q-16 0 -29 -5l-33 39l32 50q-47 6 -85.5 27.5t-67 55
t-44 77.5t-15.5 94q0 55 19 102z" />
    <glyph glyph-name="egrave" unicode="&#xe8;" horiz-adv-x="542" 
d="M502 227q-1 -8 -2 -13h-362q1 -32 12 -59t30.5 -46.5t46 -30t56.5 -10.5q59 0 90 28t45 69l81 -28q-10 -32 -29.5 -59.5t-47 -48t-62.5 -32.5t-77 -12q-48 0 -92 17t-77.5 50t-53 81t-19.5 109q0 57 19 103.5t50.5 80t73.5 52t87 18.5q55 0 98.5 -18.5t72.5 -51.5
t44.5 -79.5t15.5 -102.5v-17zM179 375q-17 -18 -27 -40t-11 -45h263q-2 52 -35 87.5t-97 35.5q-30 0 -53.5 -10.5t-39.5 -27.5zM124 689h118l86 -146h-78z" />
    <glyph glyph-name="eacute" unicode="&#xe9;" horiz-adv-x="542" 
d="M502 227q-1 -8 -2 -13h-362q1 -32 12 -59t30.5 -46.5t46 -30t56.5 -10.5q59 0 90 28t45 69l81 -28q-10 -32 -29.5 -59.5t-47 -48t-62.5 -32.5t-77 -12q-48 0 -92 17t-77.5 50t-53 81t-19.5 109q0 57 19 103.5t50.5 80t73.5 52t87 18.5q55 0 98.5 -18.5t72.5 -51.5
t44.5 -79.5t15.5 -102.5v-17zM179 375q-17 -18 -27 -40t-11 -45h263q-2 52 -35 87.5t-97 35.5q-30 0 -53.5 -10.5t-39.5 -27.5zM230 543l87 146h118l-126 -146h-79z" />
    <glyph glyph-name="ecircumflex" unicode="&#xea;" horiz-adv-x="542" 
d="M502 227q-1 -8 -2 -13h-362q1 -32 12 -59t30.5 -46.5t46 -30t56.5 -10.5q59 0 90 28t45 69l81 -28q-10 -32 -29.5 -59.5t-47 -48t-62.5 -32.5t-77 -12q-48 0 -92 17t-77.5 50t-53 81t-19.5 109q0 57 19 103.5t50.5 80t73.5 52t87 18.5q55 0 98.5 -18.5t72.5 -51.5
t44.5 -79.5t15.5 -102.5v-17zM179 375q-17 -18 -27 -40t-11 -45h263q-2 52 -35 87.5t-97 35.5q-30 0 -53.5 -10.5t-39.5 -27.5zM226 684h107l104 -139h-88l-70 81l-70 -81h-87z" />
    <glyph glyph-name="edieresis" unicode="&#xeb;" horiz-adv-x="542" 
d="M502 227q-1 -8 -2 -13h-362q1 -32 12 -59t30.5 -46.5t46 -30t56.5 -10.5q59 0 90 28t45 69l81 -28q-10 -32 -29.5 -59.5t-47 -48t-62.5 -32.5t-77 -12q-48 0 -92 17t-77.5 50t-53 81t-19.5 109q0 57 19 103.5t50.5 80t73.5 52t87 18.5q55 0 98.5 -18.5t72.5 -51.5
t44.5 -79.5t15.5 -102.5v-17zM179 375q-17 -18 -27 -40t-11 -45h263q-2 52 -35 87.5t-97 35.5q-30 0 -53.5 -10.5t-39.5 -27.5zM330 662q-17 -17 -17 -41q0 -25 16.5 -41.5t41.5 -16.5q24 0 41 16.5t17 41.5q0 24 -17 41t-41 17q-25 0 -41 -17zM126 621q0 -25 17 -41
q16 -17 40 -17q25 0 42 16.5t17 41.5q0 24 -17 41t-42 17q-24 0 -40.5 -17t-16.5 -41z" />
    <glyph glyph-name="igrave" unicode="&#xec;" horiz-adv-x="253" 
d="M-32 689h118l86 -146h-78zM173 481v-481h-93v481h93z" />
    <glyph glyph-name="iacute" unicode="&#xed;" horiz-adv-x="253" 
d="M85 543l87 146h118l-126 -146h-79zM173 481v-481h-93v481h93z" />
    <glyph glyph-name="icircumflex" unicode="&#xee;" horiz-adv-x="253" 
d="M173 481v-481h-93v481h93zM75 684h107l104 -139h-88l-70 81l-70 -81h-87z" />
    <glyph glyph-name="idieresis" unicode="&#xef;" horiz-adv-x="253" 
d="M173 481v-481h-93v481h93zM160 660q-15 -16 -15 -39t15 -38t38 -15t38.5 15t15.5 38t-15.5 38.5t-38.5 15.5t-38 -15zM4 621q0 -23 15 -38t38 -15t38.5 15t15.5 38t-15.5 38.5t-38.5 15.5t-38 -15.5t-15 -38.5z" />
    <glyph glyph-name="eth" unicode="&#xf0;" horiz-adv-x="570" 
d="M40 227q0 55 20 99t52 75t73.5 47t85.5 16q45 0 81.5 -12.5t58.5 -37.5q-17 46 -43 81t-58 62l-131 -65l-29 63l94 47q-28 16 -56 27t-56 19l29 76q29 -7 76.5 -25t97.5 -52l109 55l31 -63l-81 -40q28 -26 53 -60t43.5 -76t29.5 -92t11 -110q0 -59 -17 -109t-48.5 -87
t-77 -58t-103.5 -21q-54 0 -99 18t-77.5 50.5t-50.5 76.5t-18 96zM147 294q-12 -29 -12 -67t12 -67.5t33 -49.5t48 -30t57 -10t57 10t47.5 30t32.5 49.5t12 67.5q0 39 -12 68t-32.5 49t-47.5 30t-57 10t-57 -10.5t-48 -30.5t-33 -49z" />
    <glyph glyph-name="ntilde" unicode="&#xf1;" horiz-adv-x="562" 
d="M450 441q21 -26 31.5 -61t10.5 -75v-305h-94v289q0 25 -5.5 47t-19 38.5t-35 26t-52.5 9.5q-28 0 -49 -10.5t-35 -28.5t-21 -42t-7 -51v-278h-94v481h92v-69q26 45 66 64t82 19q43 0 75.5 -14.5t54.5 -39.5zM374 644q7 9 7 33h71v-15q0 -56 -27.5 -82.5t-69.5 -26.5
q-20 0 -36 6.5t-30 15.5l-14 9q-10 6 -18.5 10t-18.5 4q-14 0 -21.5 -9t-7.5 -34h-72v15q0 56 28 82.5t70 26.5q20 0 36.5 -6.5t30.5 -15.5l14 -9q10 -6 18 -10t18 -4q15 0 22 10z" />
    <glyph glyph-name="ograve" unicode="&#xf2;" horiz-adv-x="572" 
d="M286 -15q-54 0 -99 20q-45 19 -78 53t-51 81t-18 102t18 101.5t51 80.5t78 53.5t99 19.5t99 -19q45 -20 78 -54t51 -80.5t18 -101.5t-18 -102t-51 -81t-78 -53.5t-99 -19.5zM286 69q30 0 57 11t48 33t33 54t12 74t-12 73.5t-33 53.5t-48 33t-57 11t-57 -11t-48 -33
t-33 -53.5t-12 -73.5t12 -74t33 -54t48 -33t57 -11zM125 689h118l86 -146h-78z" />
    <glyph glyph-name="oacute" unicode="&#xf3;" horiz-adv-x="572" 
d="M286 -15q-54 0 -99 20q-45 19 -78 53t-51 81t-18 102t18 101.5t51 80.5t78 53.5t99 19.5t99 -19q45 -20 78 -54t51 -80.5t18 -101.5t-18 -102t-51 -81t-78 -53.5t-99 -19.5zM286 69q30 0 57 11t48 33t33 54t12 74t-12 73.5t-33 53.5t-48 33t-57 11t-57 -11t-48 -33
t-33 -53.5t-12 -73.5t12 -74t33 -54t48 -33t57 -11zM230 543l87 146h118l-126 -146h-79z" />
    <glyph glyph-name="ocircumflex" unicode="&#xf4;" horiz-adv-x="572" 
d="M286 -15q-54 0 -99 20q-45 19 -78 53t-51 81t-18 102t18 101.5t51 80.5t78 53.5t99 19.5t99 -19q45 -20 78 -54t51 -80.5t18 -101.5t-18 -102t-51 -81t-78 -53.5t-99 -19.5zM286 69q30 0 57 11t48 33t33 54t12 74t-12 73.5t-33 53.5t-48 33t-57 11t-57 -11t-48 -33
t-33 -53.5t-12 -73.5t12 -74t33 -54t48 -33t57 -11zM233 684h107l104 -139h-88l-70 81l-70 -81h-87z" />
    <glyph glyph-name="otilde" unicode="&#xf5;" horiz-adv-x="572" 
d="M286 -15q-54 0 -99 20q-45 19 -78 53t-51 81t-18 102t18 101.5t51 80.5t78 53.5t99 19.5t99 -19q45 -20 78 -54t51 -80.5t18 -101.5t-18 -102t-51 -81t-78 -53.5t-99 -19.5zM286 69q30 0 57 11t48 33t33 54t12 74t-12 73.5t-33 53.5t-48 33t-57 11t-57 -11t-48 -33
t-33 -53.5t-12 -73.5t12 -74t33 -54t48 -33t57 -11zM367 644q7 9 7 33h71v-15q0 -56 -27.5 -82.5t-69.5 -26.5q-20 0 -36 6.5t-30 15.5l-14 9q-10 6 -18.5 10t-18.5 4q-14 0 -21.5 -9t-7.5 -34h-72v15q0 56 28 82.5t70 26.5q20 0 36.5 -6.5t30.5 -15.5l14 -9q10 -6 18 -10
t18 -4q15 0 22 10z" />
    <glyph glyph-name="odieresis" unicode="&#xf6;" horiz-adv-x="572" 
d="M286 -15q-54 0 -99 20q-45 19 -78 53t-51 81t-18 102t18 101.5t51 80.5t78 53.5t99 19.5t99 -19q45 -20 78 -54t51 -80.5t18 -101.5t-18 -102t-51 -81t-78 -53.5t-99 -19.5zM286 69q30 0 57 11t48 33t33 54t12 74t-12 73.5t-33 53.5t-48 33t-57 11t-57 -11t-48 -33
t-33 -53.5t-12 -73.5t12 -74t33 -54t48 -33t57 -11zM338 662q-17 -17 -17 -41q0 -25 16.5 -41.5t41.5 -16.5q24 0 41 16.5t17 41.5q0 24 -17 41t-41 17q-25 0 -41 -17zM134 621q0 -25 17 -41q16 -17 40 -17q25 0 42 16.5t17 41.5q0 24 -17 41t-42 17q-24 0 -40.5 -17
t-16.5 -41z" />
    <glyph glyph-name="oslash" unicode="&#xf8;" horiz-adv-x="572" 
d="M40 241q0 55 18 101.5t51 80.5t78 53.5t99 19.5q35 0 66.5 -8.5t58.5 -23.5l50 65l60 -48l-51 -66q29 -34 45.5 -78t16.5 -96q0 -55 -18 -102t-51 -81t-78 -53.5t-99 -19.5q-35 0 -66.5 8.5t-57.5 22.5l-49 -63l-60 48l49 64q-29 34 -45.5 78.5t-16.5 97.5zM148 315
q-12 -32 -12 -74q0 -33 7 -57t18 -44l196 254q-33 18 -71 18q-30 0 -57 -11t-48 -33t-33 -53zM424 167q12 32 12 74q0 29 -6.5 54t-17.5 45l-196 -254q30 -17 70 -17q30 0 57 11t48 33t33 54z" />
    <glyph glyph-name="ugrave" unicode="&#xf9;" horiz-adv-x="566" 
d="M392 481h94v-392q0 -29 1.5 -52.5t3.5 -36.5h-90q-2 8 -3 25.5t-1 32.5q-20 -38 -60 -55.5t-82 -17.5t-75.5 15t-56.5 41t-35.5 61t-12.5 76v303h94v-289q0 -25 6 -47.5t19 -39.5t33.5 -27t50.5 -10q57 0 85.5 34t28.5 89v290zM130 689h118l86 -146h-78z" />
    <glyph glyph-name="uacute" unicode="&#xfa;" horiz-adv-x="566" 
d="M392 481h94v-392q0 -29 1.5 -52.5t3.5 -36.5h-90q-2 8 -3 25.5t-1 32.5q-20 -38 -60 -55.5t-82 -17.5t-75.5 15t-56.5 41t-35.5 61t-12.5 76v303h94v-289q0 -25 6 -47.5t19 -39.5t33.5 -27t50.5 -10q57 0 85.5 34t28.5 89v290zM218 543l87 146h118l-126 -146h-79z" />
    <glyph glyph-name="ucircumflex" unicode="&#xfb;" horiz-adv-x="566" 
d="M392 481h94v-392q0 -29 1.5 -52.5t3.5 -36.5h-90q-2 8 -3 25.5t-1 32.5q-20 -38 -60 -55.5t-82 -17.5t-75.5 15t-56.5 41t-35.5 61t-12.5 76v303h94v-289q0 -25 6 -47.5t19 -39.5t33.5 -27t50.5 -10q57 0 85.5 34t28.5 89v290zM227 684h107l104 -139h-88l-70 81l-70 -81
h-87z" />
    <glyph glyph-name="udieresis" unicode="&#xfc;" horiz-adv-x="566" 
d="M392 481h94v-392q0 -29 1.5 -52.5t3.5 -36.5h-90q-2 8 -3 25.5t-1 32.5q-20 -38 -60 -55.5t-82 -17.5t-75.5 15t-56.5 41t-35.5 61t-12.5 76v303h94v-289q0 -25 6 -47.5t19 -39.5t33.5 -27t50.5 -10q57 0 85.5 34t28.5 89v290zM332 662q-17 -17 -17 -41q0 -25 16.5 -41.5
t41.5 -16.5q24 0 41 16.5t17 41.5q0 24 -17 41t-41 17q-25 0 -41 -17zM128 621q0 -25 17 -41q16 -17 40 -17q25 0 42 16.5t17 41.5q0 24 -17 41t-42 17q-24 0 -40.5 -17t-16.5 -41z" />
    <glyph glyph-name="yacute" unicode="&#xfd;" horiz-adv-x="523" 
d="M217 53l-207 428h108l150 -332l144 332h101l-313 -682h-103zM204 543l87 146h118l-126 -146h-79z" />
    <glyph glyph-name="thorn" unicode="&#xfe;" horiz-adv-x="593" 
d="M553 241q0 -54 -15 -100t-44 -80.5t-70.5 -54t-94.5 -19.5q-56 0 -96 23t-60 55v-255h-93v914h94v-313q20 34 60.5 57.5t97.5 23.5q54 0 95.5 -19.5t69 -53.5t42 -80t14.5 -98zM257 84q26 -13 58 -13q33 0 59 12.5t44.5 35t28.5 54t10 68.5q0 36 -10 66.5t-28 53
t-44.5 35.5t-59.5 13q-32 0 -58.5 -13t-45.5 -35q-19 -23 -29 -53.5t-10 -66.5q0 -37 10 -68.5t29 -54t46 -34.5z" />
    <glyph glyph-name="ydieresis" unicode="&#xff;" horiz-adv-x="523" 
d="M217 53l-207 428h108l150 -332l144 332h101l-313 -682h-103zM314 662q-17 -17 -17 -41q0 -25 16.5 -41.5t41.5 -16.5q24 0 41 16.5t17 41.5q0 24 -17 41t-41 17q-25 0 -41 -17zM110 621q0 -25 17 -41q16 -17 40 -17q25 0 42 16.5t17 41.5q0 24 -17 41t-42 17
q-24 0 -40.5 -17t-16.5 -41z" />
    <glyph glyph-name="dotlessi" unicode="&#x131;" horiz-adv-x="253" 
d="M173 481v-481h-93v481h93z" />
    <glyph glyph-name="Lslash" unicode="&#x141;" horiz-adv-x="559" 
d="M199 332v-240h335v-92h-433v289l-96 -42v87l96 42v333h98v-289l157 69v-87z" />
    <glyph glyph-name="lslash" unicode="&#x142;" horiz-adv-x="288" 
d="M283 356l-95 -42v-314h-94v272l-89 -39v87l89 39v365h94v-323l95 42v-87z" />
    <glyph glyph-name="OE" unicode="&#x152;" horiz-adv-x="1148" 
d="M76 513q30 68 80 115t114 71.5t131 24.5q71 0 138 -27t118 -81v93h431v-91h-333v-218h302v-92h-302v-217h333v-91h-431v93q-51 -54 -118 -81t-138 -27q-67 0 -131 24.5t-114 71.5t-80.5 116t-30.5 158t31 158zM224 564q-36 -35 -57.5 -87.5t-21.5 -121.5t21.5 -121.5
t57 -88t81.5 -53t96 -17.5q49 0 95.5 17.5t82 53t57 88t21.5 121.5t-21.5 121.5t-57 87.5t-82 52.5t-95.5 17.5q-50 0 -96 -17.5t-81 -52.5z" />
    <glyph glyph-name="oe" unicode="&#x153;" horiz-adv-x="937" 
d="M865 78q-20 -28 -47.5 -48.5t-62.5 -32.5t-77 -12q-59 0 -110 24.5t-85 72.5q-32 -45 -83 -71t-114 -26q-54 0 -99 19.5t-78 53.5t-51 81t-18 102t18 101.5t51 80.5t78 53.5t99 19.5q63 0 114 -26.5t83 -71.5q32 46 80.5 72t102.5 26q55 0 98.5 -18.5t72.5 -51.5
t44.5 -79.5t15.5 -102.5q0 -8 -0.5 -16.5t-1.5 -13.5h-362q1 -32 12.5 -58.5t31 -46t45.5 -30.5t56 -11q59 0 90 28t45 69l81 -28q-10 -32 -29 -59zM148 315q-12 -32 -12 -74t12 -74t33 -54t48 -33t57 -11t57 11t48 33t33 54t12 74t-12 73.5t-33 53.5t-48 33t-57 11t-57 -11
t-48 -33t-33 -53zM536 290h263q-2 52 -35.5 87.5t-96.5 35.5q-30 0 -53.5 -10.5t-40 -28t-26.5 -39.5t-11 -45z" />
    <glyph glyph-name="Scaron" unicode="&#x160;" horiz-adv-x="593" 
d="M132 226q3 -30 14.5 -57.5t33 -48.5t52 -33.5t70.5 -12.5q73 0 109.5 33t36.5 80q0 38 -26 68.5t-80 41.5l-101 22q-76 17 -124.5 65.5t-48.5 128.5q0 42 18 80t49.5 67t74.5 46.5t92 17.5q60 0 102.5 -16.5t71 -42.5t44.5 -57t22 -60l-88 -31q-3 19 -13 40.5t-28 39.5
t-45 29.5t-64 11.5q-30 0 -55 -9t-43.5 -25t-28.5 -37.5t-10 -46.5q0 -38 23 -65.5t68 -37.5l106 -23q89 -20 136.5 -72t47.5 -127q0 -41 -17 -79t-49 -67t-77 -46.5t-102 -17.5q-64 0 -111.5 19t-80 49t-50.5 67.5t-23 75.5zM133 878h91l81 -64l85 64h92l-117 -119h-120z
" />
    <glyph glyph-name="scaron" unicode="&#x161;" horiz-adv-x="452" 
d="M404 367l-83 -31q-2 9 -7 23t-16 26.5t-30 21.5t-47 9q-36 0 -58 -19.5t-22 -44.5q0 -46 55 -58l78 -17q66 -14 99.5 -51.5t33.5 -91.5q0 -26 -11 -52t-32.5 -48t-54.5 -35.5t-78 -13.5q-50 0 -85.5 14t-59 35t-36 45.5t-15.5 45.5l85 30q5 -38 33 -64t79 -26q40 0 61 19
t21 45q0 23 -16 39t-46 23l-82 18q-57 12 -88.5 48t-31.5 87q0 31 13.5 58.5t36.5 48.5t54.5 33t66.5 12q49 0 82.5 -14t54.5 -34.5t31.5 -42.5t14.5 -38zM69 687h87l70 -81l70 81h88l-102 -142h-111z" />
    <glyph glyph-name="Ydieresis" unicode="&#x178;" horiz-adv-x="618" 
d="M608 709l-250 -406v-303h-98v303l-250 406h118l184 -316l184 316h112zM135 819q0 -25 17 -42t42 -17t42 17t17 42t-17 42t-42 17t-42 -17t-17 -42zM383 861q-17 -17 -17 -42t17 -42t42 -17t42 17t17 42t-17 42t-42 17t-42 -17z" />
    <glyph glyph-name="Zcaron" unicode="&#x17d;" horiz-adv-x="632" 
d="M592 0h-547v98l423 520h-413v91h532v-95l-425 -522h430v-92zM149 878h91l81 -64l85 64h92l-117 -119h-120z" />
    <glyph glyph-name="zcaron" unicode="&#x17e;" horiz-adv-x="466" 
d="M78 687h87l70 -81l70 81h88l-102 -142h-111zM426 0h-386v82l264 314h-260v85h377v-82l-264 -314h269v-85z" />
    <glyph glyph-name="circumflex" unicode="&#x2c6;" horiz-adv-x="385" 
d="M139 684h107l104 -139h-88l-70 81l-70 -81h-87z" />
    <glyph glyph-name="caron" unicode="&#x2c7;" horiz-adv-x="385" 
d="M35 687h87l70 -81l70 81h88l-102 -142h-111z" />
    <glyph glyph-name="uni02C9" unicode="&#x2c9;" horiz-adv-x="343" 
d="M308 658v-81h-273v81h273z" />
    <glyph glyph-name="breve" unicode="&#x2d8;" horiz-adv-x="362" 
d="M108 687q1 -23 18 -44t55 -21t54.5 21t18.5 44h73q0 -27 -9.5 -52.5t-27.5 -45.5t-45.5 -32t-63.5 -12q-35 0 -62 12t-45.5 32t-28.5 45.5t-10 52.5h73z" />
    <glyph glyph-name="dotaccent" unicode="&#x2d9;" horiz-adv-x="174" 
d="M87 678q26 0 44 -18t18 -44t-18 -44t-44 -18t-44 18t-18 44t18 44t44 18z" />
    <glyph glyph-name="ring" unicode="&#x2da;" horiz-adv-x="293" 
d="M225 719q15 -15 24 -35t9 -43t-9 -43t-24 -34.5t-35 -22.5q-21 -9 -44 -9q-22 0 -42 8.5t-35.5 23t-24.5 34.5t-9 43t9 43t24.5 35t35.5 23.5t42 8.5q23 0 43.5 -8.5t35.5 -23.5zM194 641q0 20 -14 34.5t-35 14.5q-20 0 -33.5 -14.5t-13.5 -34.5t13.5 -34t33.5 -14
q21 0 35 14t14 34z" />
    <glyph glyph-name="ogonek" unicode="&#x2db;" horiz-adv-x="233" 
d="M169 -16q-15 -9 -27.5 -21t-20.5 -27t-8 -33q0 -26 16.5 -36.5t36.5 -10.5q12 0 19 1t13 3v-68q-10 -4 -20.5 -6t-29.5 -2q-23 0 -44 7t-37 19.5t-25 31.5t-9 43q0 27 9.5 48.5t24.5 37t33 26.5t35 19l63 -16q-14 -7 -29 -16z" />
    <glyph glyph-name="tilde" unicode="&#x2dc;" horiz-adv-x="377" 
d="M268 644q7 9 7 33h71v-15q0 -56 -27.5 -82.5t-69.5 -26.5q-20 0 -36 6.5t-30 15.5l-14 9q-10 6 -18.5 10t-18.5 4q-14 0 -21.5 -9t-7.5 -34h-72v15q0 56 28 82.5t70 26.5q20 0 36.5 -6.5t30.5 -15.5l14 -9q10 -6 18 -10t18 -4q15 0 22 10z" />
    <glyph glyph-name="hungarumlaut" unicode="&#x2dd;" horiz-adv-x="367" 
d="M227 689h105l-100 -146h-66zM101 543h-66l51 146h105z" />
    <glyph glyph-name="uni0394" unicode="&#x394;" horiz-adv-x="662" 
d="M278 709h105l279 -709h-662zM522 90l-193 507l-190 -507h383z" />
    <glyph glyph-name="uni03A9" unicode="&#x3a9;" horiz-adv-x="796" 
d="M75 529q29 63 77.5 106t112.5 66t133 23t133 -23t112.5 -66t78 -106t29.5 -142q0 -58 -18 -106.5t-47.5 -87t-66.5 -65t-76 -40.5h203v-88h-305v132q37 8 74.5 28.5t67.5 53t49 76.5t19 98q0 61 -22 107t-58 77.5t-81.5 47.5t-91.5 16t-91.5 -16t-81.5 -47.5t-58 -77.5
t-22 -107q0 -54 19 -98t49 -76.5t67.5 -53t74.5 -28.5v-132h-305v88h202q-38 14 -75.5 40.5t-66.5 65t-47 87t-18 106.5q0 79 30 142z" />
    <glyph glyph-name="uni03BC" unicode="&#x3bc;" horiz-adv-x="571" 
d="M397 481h94v-392q0 -29 1.5 -54t3.5 -35h-90q-2 8 -3 25.5t-1 32.5q-20 -38 -60 -55.5t-82 -17.5q-27 0 -47.5 5.5t-38.5 14.5v-195h-94v671h94v-289q0 -25 6 -47.5t19 -39.5t33.5 -27t50.5 -10q57 0 85.5 34t28.5 89v290z" />
    <glyph glyph-name="pi" unicode="&#x3c0;" horiz-adv-x="615" 
d="M504 -7q-31 0 -53 10t-36.5 26.5t-21.5 38t-7 44.5v287h-165v-399h-94v399h-82v82h518v-82h-83v-277q0 -27 15.5 -38t38.5 -11q8 0 15.5 1t15.5 3v-72q-9 -4 -23.5 -8t-37.5 -4z" />
    <glyph glyph-name="uni2007" unicode="&#x2007;" horiz-adv-x="614" 
 />
    <glyph glyph-name="uni2008" unicode="&#x2008;" horiz-adv-x="279" 
 />
    <glyph glyph-name="uni200B" unicode="&#x200b;" horiz-adv-x="0" 
 />
    <glyph glyph-name="endash" unicode="&#x2013;" horiz-adv-x="642" 
d="M577 328v-82h-512v82h512z" />
    <glyph glyph-name="emdash" unicode="&#x2014;" horiz-adv-x="1103" 
d="M1028 328v-82h-953v82h953z" />
    <glyph glyph-name="quoteleft" unicode="&#x2018;" horiz-adv-x="218" 
d="M53 616q13 32 32.5 53.5t43 32.5t44.5 13v-47q-33 -8 -53.5 -37t-21.5 -60q2 2 7 3.5t13 1.5q25 0 42.5 -16t17.5 -45q0 -25 -18.5 -42.5t-46.5 -17.5q-29 0 -51 21t-22 64q0 44 13 76z" />
    <glyph glyph-name="quoteright" unicode="&#x2019;" horiz-adv-x="224" 
d="M60 700q19 18 48 18q30 0 53 -22t23 -66q0 -47 -13.5 -80t-34 -55t-44.5 -33t-46 -14v48q34 8 55 37.5t22 63.5q-2 -2 -7 -3.5t-13 -1.5q-26 0 -44.5 17t-18.5 47q0 25 20 44z" />
    <glyph glyph-name="quotesinglbase" unicode="&#x201a;" horiz-adv-x="224" 
d="M60 105q19 18 48 18q30 0 53 -22t23 -66q0 -47 -13.5 -80t-34 -55t-44.5 -33t-46 -14v48q34 8 55 37.5t22 63.5q-2 -2 -7 -3.5t-13 -1.5q-26 0 -44.5 17t-18.5 47q0 25 20 44z" />
    <glyph glyph-name="quotedblleft" unicode="&#x201c;" horiz-adv-x="389" 
d="M233 481q-22 21 -22 64q0 44 13 76t32.5 53.5t43 32.5t44.5 13v-47q-33 -8 -53.5 -37t-21.5 -60q2 2 7 3.5t13 1.5q25 0 42.5 -16t17.5 -45q0 -25 -18.5 -42.5t-46.5 -17.5q-29 0 -51 21zM160 478q-19 -18 -47 -18q-29 0 -51 21t-22 64q0 44 13 76t32.5 53.5t43 32.5
t44.5 13v-47q-33 -8 -53.5 -37t-21.5 -60q2 2 7 3.5t13 1.5q25 0 42.5 -16t17.5 -45q0 -25 -18 -42z" />
    <glyph glyph-name="quotedblright" unicode="&#x201d;" horiz-adv-x="389" 
d="M336 554q-13 -32 -32.5 -53t-43 -32t-44.5 -14v47q16 4 30 13.5t23.5 22.5t15.5 29t6 32q-2 -2 -7 -3.5t-13 -1.5q-25 0 -42.5 16t-17.5 45q0 25 18.5 42.5t46.5 17.5q29 0 51 -21t22 -64q0 -44 -13 -76zM113 596q-5 -2 -13 -2q-25 0 -42.5 16t-17.5 45q0 25 18.5 42.5
t46.5 17.5q29 0 51 -21t22 -64q0 -44 -13 -76t-32.5 -53t-43 -32t-44.5 -14v47q16 4 30 13.5t23.5 22.5t15.5 29t6 32q-2 -2 -7 -3z" />
    <glyph glyph-name="quotedblbase" unicode="&#x201e;" horiz-adv-x="389" 
d="M113 -2q-5 -1 -13 -1q-25 0 -42.5 16t-17.5 45q0 25 18.5 42.5t46.5 17.5q29 0 51 -21t22 -64q0 -44 -13 -76t-32.5 -53t-43 -32t-44.5 -14v47q16 4 30 13.5t23.5 22.5t15.5 29t6 32q-2 -2 -7 -4zM336 -43q-13 -32 -32.5 -53t-43 -32t-44.5 -14v47q16 4 30 13.5
t23.5 22.5t15.5 29t6 32q-2 -2 -7 -3.5t-13 -1.5q-25 0 -42.5 16t-17.5 45q0 25 18.5 42.5t46.5 17.5q29 0 51 -21t22 -64q0 -44 -13 -76z" />
    <glyph glyph-name="dagger" unicode="&#x2020;" horiz-adv-x="386" 
d="M361 479h-127v-317h-82v317h-127v81h127v149h82v-149h127v-81z" />
    <glyph glyph-name="daggerdbl" unicode="&#x2021;" horiz-adv-x="426" 
d="M254 560h127v-81h-127v-249h127v-81h-127v-149h-82v149h-127v81h127v249h-127v81h127v149h82v-149z" />
    <glyph glyph-name="bullet" unicode="&#x2022;" horiz-adv-x="554" 
d="M70 289q0 43 16.5 81t44.5 66t65.5 44.5t80.5 16.5t80.5 -16.5t65.5 -44.5t44.5 -66t16.5 -81q0 -42 -16.5 -80t-44.5 -66t-65.5 -44.5t-80.5 -16.5t-80.5 16.5t-65.5 44.5t-44.5 66t-16.5 80z" />
    <glyph glyph-name="ellipsis" unicode="&#x2026;" horiz-adv-x="932" 
d="M109 105q19 19 46 19t45.5 -19t18.5 -46t-18.5 -45.5t-45.5 -18.5t-46 18.5t-19 45.5t19 46zM401 59q0 27 19 46t46 19t45.5 -19t18.5 -46t-18.5 -45.5t-45.5 -18.5t-46 18.5t-19 45.5zM713 59q0 27 19 46t46 19t45.5 -19t18.5 -46t-18.5 -45.5t-45.5 -18.5t-46 18.5
t-19 45.5z" />
    <glyph glyph-name="guilsinglleft" unicode="&#x2039;" horiz-adv-x="276" 
d="M30 290l133 191h93l-131 -191l131 -191h-93z" />
    <glyph glyph-name="guilsinglright" unicode="&#x203a;" horiz-adv-x="276" 
d="M151 290l-131 191h93l133 -191l-133 -191h-93z" />
    <glyph glyph-name="uni2042" unicode="&#x2042;" horiz-adv-x="835" 
d="M488 229l110 -38v121h71v-121l111 38l20 -65l-111 -36l74 -95l-55 -41l-75 98l-70 -97l-55 41l71 94l-112 36zM251 561l21 65l110 -38v121h71v-121l111 38l20 -65l-111 -36l74 -95l-55 -41l-75 98l-70 -97l-55 41l71 94zM56 229l110 -38v121h71v-121l111 38l20 -65
l-111 -36l74 -95l-55 -41l-75 98l-70 -97l-55 41l71 94l-112 36z" />
    <glyph glyph-name="fraction" unicode="&#x2044;" horiz-adv-x="556" 
d="M0 0l466 648h90l-464 -648h-92z" />
    <glyph glyph-name="uni2051" unicode="&#x2051;" horiz-adv-x="423" 
d="M176 312h71v-121l111 38l20 -65l-111 -36l74 -95l-55 -41l-75 98l-70 -97l-55 41l71 94l-112 36l21 65l110 -38v121zM358 626l20 -65l-111 -36l74 -95l-55 -41l-75 98l-70 -97l-55 41l71 94l-112 36l21 65l110 -38v121h71v-121z" />
    <glyph glyph-name="uni2070" unicode="&#x2070;" horiz-adv-x="426" 
d="M213 337q-46 0 -73.5 17.5t-44.5 40.5q-20 27 -27.5 61t-7.5 70t7.5 70.5t27.5 61.5q17 23 44.5 40.5t73.5 17.5t74 -17q27 -18 44 -41q20 -27 27.5 -61.5t7.5 -70.5t-7.5 -70t-27.5 -61q-17 -23 -44.5 -40.5t-73.5 -17.5zM174 415q14 -12 39 -12t39.5 11.5t22.5 29.5
t10.5 40t2.5 42t-2.5 42t-10.5 40t-22.5 30t-39.5 12t-39.5 -11.5t-22.5 -29.5t-10.5 -40t-2.5 -43q0 -20 2.5 -42t10.5 -40t23 -29z" />
    <glyph glyph-name="uni2074" unicode="&#x2074;" horiz-adv-x="446" 
d="M322 344h-77v72h-185v73l177 220h85v-228h64v-65h-64v-72zM245 481v139l-111 -139h111z" />
    <glyph glyph-name="uni2075" unicode="&#x2075;" horiz-adv-x="404" 
d="M247 418q19 16 19 45q0 31 -19 46.5t-48 15.5q-20 0 -36 -7.5t-28 -19.5l-64 24l49 187h204v-66h-154l-23 -86q14 15 33.5 21.5t39.5 6.5q56 0 90 -32t34 -87q0 -27 -9.5 -50.5t-28 -41t-45.5 -27.5t-62 -10q-27 0 -50.5 8t-41.5 20.5t-30 29t-17 34.5l66 30
q7 -26 26.5 -41.5t46.5 -15.5q29 0 48 16z" />
    <glyph glyph-name="uni2076" unicode="&#x2076;" horiz-adv-x="418" 
d="M322 559q36 -33 36 -93q0 -29 -11.5 -52.5t-31 -40.5t-46.5 -26.5t-58 -9.5q-28 0 -55 10t-48.5 30.5t-34.5 52t-13 74.5q0 49 14.5 88t40.5 67t61.5 43t77.5 15q25 0 48 -5t38 -14l-18 -57q-29 13 -62 13q-48 0 -81.5 -26.5t-41.5 -78.5q13 19 38 31t53 12q58 0 94 -33z
M212 528q-26 0 -47.5 -16t-21.5 -47t21.5 -47t47.5 -16t47 16t21 47t-21 47t-47 16z" />
    <glyph glyph-name="uni2077" unicode="&#x2077;" horiz-adv-x="417" 
d="M357 640q-13 -9 -36 -30t-47 -56.5t-44 -87t-27 -122.5h-82q7 75 29 130.5t46 93.5q28 44 61 75h-197v66h297v-69z" />
    <glyph glyph-name="uni2078" unicode="&#x2078;" horiz-adv-x="410" 
d="M205 337q-70 0 -107.5 31t-37.5 77q0 27 18 50.5t50 35.5q-27 11 -41.5 33t-14.5 47q0 47 37.5 76t95.5 29t96 -29q37 -29 37 -76q0 -25 -14.5 -47t-41.5 -33q32 -12 50 -35q18 -24 18 -51q0 -46 -37.5 -77t-107.5 -31zM205 401q33 0 50 14q17 13 17 36q0 22 -17.5 36
t-49.5 14t-49.5 -14t-17.5 -36q0 -23 17 -36.5t50 -13.5zM163 642q-15 -13 -15 -33q0 -22 15.5 -35t41.5 -13t42 13q15 13 15 35q0 20 -15 32.5t-42 12.5t-42 -12z" />
    <glyph glyph-name="uni2079" unicode="&#x2079;" horiz-adv-x="416" 
d="M262 707q26 -10 47 -30.5t34 -52t13 -74.5q0 -52 -14.5 -91.5t-40 -66.5t-60.5 -41t-77 -14q-25 0 -48 5t-38 14l18 59q29 -13 62 -13q48 0 82.5 24.5t40.5 78.5q-13 -19 -38 -31t-53 -12q-57 0 -93.5 33.5t-36.5 92.5q0 28 11.5 52t31 41t46.5 26.5t58 9.5q28 0 55 -10z
M204 652q-27 0 -47.5 -16.5t-20.5 -47.5t20.5 -47.5t47.5 -16.5t48 16.5t21 47.5t-21 47.5t-48 16.5z" />
    <glyph glyph-name="uni2080" unicode="&#x2080;" horiz-adv-x="426" 
d="M213 -78q-46 0 -73.5 17.5t-44.5 40.5q-20 27 -27.5 61t-7.5 70t7.5 70.5t27.5 61.5q17 23 44.5 40.5t73.5 17.5t74 -17q27 -18 44 -41q20 -27 27.5 -61.5t7.5 -70.5t-7.5 -70t-27.5 -61q-17 -23 -44.5 -40.5t-73.5 -17.5zM174 0q14 -12 39 -12t39.5 11.5t22.5 29.5
t10.5 40t2.5 42t-2.5 42t-10.5 40t-22.5 30t-39.5 12t-39.5 -11.5t-22.5 -29.5t-10.5 -40t-2.5 -43q0 -20 2.5 -42t10.5 -40t23 -29z" />
    <glyph glyph-name="uni2081" unicode="&#x2081;" horiz-adv-x="303" 
d="M50 174v52q37 1 62 20.5t30 47.5h71v-365h-77v245h-86z" />
    <glyph glyph-name="uni2082" unicode="&#x2082;" horiz-adv-x="389" 
d="M165 14q-9 -9 -11 -20h175v-65h-268v13q0 45 20 81.5t65 63.5l60 37q43 26 43 63q0 20 -14 35t-40 15t-41.5 -16t-15.5 -42q0 -3 0.5 -11t2.5 -15h-74q-2 8 -2.5 16.5t-0.5 14.5q0 24 9 45t26 37t41.5 25.5t55.5 9.5t55 -9.5t41 -25t26 -36.5t9 -44q0 -35 -19 -62.5
t-51 -47.5l-72 -45q-11 -8 -20 -17z" />
    <glyph glyph-name="uni2083" unicode="&#x2083;" horiz-adv-x="412" 
d="M207 -78q-33 0 -58 9t-43.5 23t-30 32.5t-15.5 38.5l67 27q5 -29 26.5 -46.5t52.5 -17.5t49.5 16t18.5 39q0 31 -21.5 43.5t-46.5 12.5q-8 0 -15.5 -1t-12.5 -3l-29 56l95 79h-171v65h271v-63l-100 -80q21 -2 40.5 -9.5t34.5 -21t24 -33.5t9 -45t-10.5 -47t-29.5 -38.5
t-45.5 -26t-59.5 -9.5z" />
    <glyph glyph-name="uni2084" unicode="&#x2084;" horiz-adv-x="446" 
d="M322 -71h-77v72h-185v73l177 220h85v-228h64v-65h-64v-72zM245 66v139l-111 -139h111z" />
    <glyph glyph-name="uni2085" unicode="&#x2085;" horiz-adv-x="404" 
d="M247 3q19 16 19 45q0 31 -19 46.5t-48 15.5q-20 0 -36 -7.5t-28 -19.5l-64 24l49 187h204v-66h-154l-23 -86q14 15 33.5 21.5t39.5 6.5q56 0 90 -32t34 -87q0 -27 -9.5 -50.5t-28 -41t-45.5 -27.5t-62 -10q-27 0 -50.5 8t-41.5 20.5t-30 29t-17 34.5l66 30
q7 -26 26.5 -41.5t46.5 -15.5q29 0 48 16z" />
    <glyph glyph-name="uni2086" unicode="&#x2086;" horiz-adv-x="418" 
d="M322 144q36 -33 36 -93q0 -29 -11.5 -52.5t-31 -40.5t-46.5 -26.5t-58 -9.5q-28 0 -55 10t-48.5 30.5t-34.5 52t-13 74.5q0 49 14.5 88t40.5 67t61.5 43t77.5 15q25 0 48 -5t38 -14l-18 -57q-29 13 -62 13q-48 0 -81.5 -26.5t-41.5 -78.5q13 19 38 31t53 12q58 0 94 -33z
M212 113q-26 0 -47.5 -16t-21.5 -47t21.5 -47t47.5 -16t47 16t21 47t-21 47t-47 16z" />
    <glyph glyph-name="uni2087" unicode="&#x2087;" horiz-adv-x="417" 
d="M357 225q-13 -9 -36 -30t-47 -56.5t-44 -87t-27 -122.5h-82q7 75 29 130.5t46 93.5q28 44 61 75h-197v66h297v-69z" />
    <glyph glyph-name="uni2088" unicode="&#x2088;" horiz-adv-x="410" 
d="M205 -78q-70 0 -107.5 31t-37.5 77q0 27 18 50.5t50 35.5q-27 11 -41.5 33t-14.5 47q0 47 37.5 76t95.5 29t96 -29q37 -29 37 -76q0 -25 -14.5 -47t-41.5 -33q32 -12 50 -35q18 -24 18 -51q0 -46 -37.5 -77t-107.5 -31zM205 -14q33 0 50 14q17 13 17 36q0 22 -17.5 36
t-49.5 14t-49.5 -14t-17.5 -36q0 -23 17 -36.5t50 -13.5zM163 227q-15 -13 -15 -33q0 -22 15.5 -35t41.5 -13t42 13q15 13 15 35q0 20 -15 32.5t-42 12.5t-42 -12z" />
    <glyph glyph-name="uni2089" unicode="&#x2089;" horiz-adv-x="416" 
d="M262 292q26 -10 47 -30.5t34 -52t13 -74.5q0 -52 -14.5 -91.5t-40 -66.5t-60.5 -41t-77 -14q-25 0 -48 5t-38 14l18 59q29 -13 62 -13q48 0 82.5 24.5t40.5 78.5q-13 -19 -38 -31t-53 -12q-57 0 -93.5 33.5t-36.5 92.5q0 28 11.5 52t31 41t46.5 26.5t58 9.5q28 0 55 -10z
M204 237q-27 0 -47.5 -16.5t-20.5 -47.5t20.5 -47.5t47.5 -16.5t48 16.5t21 47.5t-21 47.5t-48 16.5z" />
    <glyph glyph-name="uni2113" unicode="&#x2113;" horiz-adv-x="407" 
d="M337 625q35 -39 35 -111q0 -39 -11.5 -78t-34 -76t-55 -70t-74.5 -59v-71q0 -41 19 -59t48 -19q28 0 51 7.5t39 21.5v-85q-5 -7 -27 -19t-67 -12q-81 0 -119 45.5t-38 114.5v33q-17 -5 -33.5 -9.5t-34.5 -7.5v88q6 2 25.5 8t42.5 17v222q0 74 37 116t97 42q64 0 100 -39z
M197 343q33 30 57 72t24 99q0 32 -8.5 48t-30.5 16q-17 0 -29.5 -15.5t-12.5 -55.5v-164z" />
    <glyph glyph-name="trademark" unicode="&#x2122;" horiz-adv-x="859" 
d="M626 344h-59l-98 230v-230h-76v365h99l107 -254l107 254h93v-365h-72v233zM30 641v68h300v-68h-112v-297h-76v297h-112z" />
    <glyph glyph-name="Omega" unicode="&#x2126;" horiz-adv-x="796" 
d="M75 529q29 63 77.5 106t112.5 66t133 23t133 -23t112.5 -66t78 -106t29.5 -142q0 -58 -18 -106.5t-47.5 -87t-66.5 -65t-76 -40.5h203v-88h-305v132q37 8 74.5 28.5t67.5 53t49 76.5t19 98q0 61 -22 107t-58 77.5t-81.5 47.5t-91.5 16t-91.5 -16t-81.5 -47.5t-58 -77.5
t-22 -107q0 -54 19 -98t49 -76.5t67.5 -53t74.5 -28.5v-132h-305v88h202q-38 14 -75.5 40.5t-66.5 65t-47 87t-18 106.5q0 79 30 142z" />
    <glyph glyph-name="uni2160" unicode="&#x2160;" horiz-adv-x="506" 
d="M451 0h-396v88h150v472h-150v88h396v-88h-150v-472h150v-88z" />
    <glyph glyph-name="uni2161" unicode="&#x2161;" horiz-adv-x="770" 
d="M575 560v-472h140v-88h-660v88h140v472h-140v88h660v-88h-140zM291 88h188v472h-188v-472z" />
    <glyph glyph-name="uni2162" unicode="&#x2162;" horiz-adv-x="1044" 
d="M849 560v-472h140v-88h-934v88h140v472h-140v88h934v-88h-140zM753 88v472h-183v-472h183zM291 88h183v472h-183v-472z" />
    <glyph glyph-name="uni2163" unicode="&#x2163;" horiz-adv-x="1006" 
d="M835 560l-163 -472h279v-88h-896v88h130v472h-130v88h895v-88h-115zM281 88h240l-160 472h-80v-472zM463 560l136 -419l137 419h-273z" />
    <glyph glyph-name="uni2164" unicode="&#x2164;" horiz-adv-x="803" 
d="M55 648h693v-88h-110l-163 -472h269v-88h-684v88h264l-160 472h-109v88zM402 141l137 419h-273z" />
    <glyph glyph-name="uni2165" unicode="&#x2165;" horiz-adv-x="1006" 
d="M821 88h130v-88h-896v88h274l-160 472h-114v88h895v-88h-129v-472zM725 88v472h-82l-163 -472h245zM271 560l136 -419l137 419h-273z" />
    <glyph glyph-name="uni2166" unicode="&#x2166;" horiz-adv-x="1293" 
d="M1238 88v-88h-1183v88h273l-159 472h-114v88h1183v-88h-140v-472h140zM1002 88v472h-182v-472h182zM724 88v472h-82l-163 -472h245zM406 141l137 419h-272z" />
    <glyph glyph-name="uni2167" unicode="&#x2167;" horiz-adv-x="1542" 
d="M1487 88v-88h-1432v88h270l-156 472h-114v88h1432v-88h-135v-472h135zM987 560h-173v-472h173v472zM1083 88h173v472h-173v-472zM634 560l-160 -472h244v472h-84zM271 560l131 -419l132 419h-263z" />
    <glyph glyph-name="uni2168" unicode="&#x2168;" horiz-adv-x="976" 
d="M645 317l161 -229h115v-88h-866v88h130v472h-130v88h865v-88h-105zM281 88h92l165 229l-171 243h-86v-472zM706 560h-229l114 -168zM590 243l-109 -155h215z" />
    <glyph glyph-name="uni2169" unicode="&#x2169;" horiz-adv-x="767" 
d="M712 88v-88h-657v88h109l165 229l-171 243h-103v88h656v-88h-105l-170 -243l161 -229h115zM382 392l115 168h-229zM272 88h215l-106 155z" />
    <glyph glyph-name="uni216C" unicode="&#x216c;" horiz-adv-x="654" 
d="M599 281v-281h-544v88h130v472h-130v88h366v-88h-140v-472h222v193h96z" />
    <glyph glyph-name="uni216D" unicode="&#x216d;" horiz-adv-x="722" 
d="M667 0h-96v67q-31 -38 -77 -59.5t-115 -21.5q-61 0 -119.5 22.5t-104 65.5t-73 106.5t-27.5 144.5q0 82 28 145t73.5 106t103.5 65.5t119 22.5q67 0 113 -20t77 -57v63h96v-226h-96q-8 69 -56 110.5t-134 41.5q-46 0 -87 -15t-72 -46t-49.5 -78.5t-18.5 -111.5
t18.5 -111.5t49.5 -78.5t72 -46t87 -15q49 0 84.5 14.5t58.5 37t35 50.5t14 55h96v-231z" />
    <glyph glyph-name="uni216E" unicode="&#x216e;" horiz-adv-x="735" 
d="M587 566q42 -41 67.5 -101.5t25.5 -141.5q0 -80 -25 -140t-68 -101t-99 -61.5t-118 -20.5h-315v88h135v472h-135v88h321q59 0 114 -20.5t97 -61.5zM564 218q18 44 18 105q0 59 -17 103.5t-45.5 74t-67.5 44.5t-82 15h-84v-472h86q40 0 77.5 14t67 43t47.5 73z" />
    <glyph glyph-name="uni216F" unicode="&#x216f;" horiz-adv-x="1069" 
d="M689 0v88h99v428l-219 -516h-76l-217 516v-428h104v-88h-325v88h127v472h-127v88h266l210 -515l212 515h271v-88h-132v-472h132v-88h-325z" />
    <glyph glyph-name="arrowleft" unicode="&#x2190;" horiz-adv-x="1026" 
d="M0 287l221 186v-144h735v-83h-735v-144z" />
    <glyph glyph-name="arrowup" unicode="&#x2191;" horiz-adv-x="449" 
d="M40 555l200 245l199 -245h-158v-703h-83v703h-158z" />
    <glyph glyph-name="arrowright" unicode="&#x2192;" horiz-adv-x="1026" 
d="M730 328v171l252 -212l-252 -211v169h-696v83h696z" />
    <glyph glyph-name="arrowdown" unicode="&#x2193;" horiz-adv-x="449" 
d="M-1 90h169v696h83v-696h171l-212 -252z" />
    <glyph glyph-name="uni2196" unicode="&#x2196;" horiz-adv-x="874" 
d="M347 709l-116 -117l543 -542l-59 -58l-543 541l-117 -118v294h292z" />
    <glyph glyph-name="uni2197" unicode="&#x2197;" horiz-adv-x="773" 
d="M497 592l-116 117h292v-294l-118 118l-542 -541l-59 58z" />
    <glyph glyph-name="uni2198" unicode="&#x2198;" horiz-adv-x="874" 
d="M114 717l542 -542l118 119v-294h-292l116 117l-543 542z" />
    <glyph glyph-name="uni2199" unicode="&#x2199;" horiz-adv-x="764" 
d="M162 175l543 542l59 -58l-543 -542l116 -117h-292v294z" />
    <glyph glyph-name="uni21A9" unicode="&#x21a9;" horiz-adv-x="833" 
d="M713 402q12 23 12 53t-11.5 53.5t-31.5 39.5t-47 24.5t-57 8.5h-180v83h192q45 0 84.5 -16t69 -44t46.5 -66.5t17 -82.5q0 -47 -18 -85.5t-49 -66t-71 -42.5t-83 -15h-367v-144l-221 185l221 186v-144h362q28 0 54 8.5t46 24.5t32 40z" />
    <glyph glyph-name="uni21B0" unicode="&#x21b0;" horiz-adv-x="775" 
d="M685 0h-83v497h-331v-144l-221 185l221 186v-144h414v-580z" />
    <glyph glyph-name="uni21B1" unicode="&#x21b1;" horiz-adv-x="720" 
d="M499 353v144h-381v-497h-83v580h464v144l221 -186z" />
    <glyph glyph-name="uni21B2" unicode="&#x21b2;" horiz-adv-x="760" 
d="M675 129h-464v-144l-221 186l221 185v-144h381v497h83v-580z" />
    <glyph glyph-name="uni21B3" unicode="&#x21b3;" horiz-adv-x="840" 
d="M770 171l-221 -186v144h-464v580h83v-497h381v144z" />
    <glyph glyph-name="uni21B4" unicode="&#x21b4;" horiz-adv-x="814" 
d="M635 205h144l-186 -221l-185 221h144v421h-497v83h580v-504z" />
    <glyph glyph-name="uni21C6" unicode="&#x21c6;" horiz-adv-x="1106" 
d="M276 582h755v-83h-755v-144l-221 185l221 186v-144zM830 -15v144h-755v83h755v144l221 -186z" />
    <glyph glyph-name="partialdiff" unicode="&#x2202;" horiz-adv-x="611" 
d="M46 221q0 54 20 97q19 42 53 72t78.5 46t94.5 16q60 0 104 -17t67 -40q-5 64 -23 110.5t-46 75.5t-65 43t-82 14q-24 0 -62.5 -6t-77.5 -25l-32 74q42 24 90 33.5t90 9.5q45 0 98.5 -15t100 -56.5t77.5 -114.5t31 -190q0 -84 -17.5 -151t-52.5 -114t-86.5 -72.5
t-118.5 -25.5q-46 0 -89.5 14.5t-77 44t-54 74t-20.5 103.5zM153 274q-11 -28 -11 -59q0 -35 12.5 -61.5t33.5 -44.5t48 -27.5t56 -9.5q47 0 79.5 20.5t53 52.5t30 72t9.5 79q-26 36 -68.5 54.5t-89.5 18.5q-41 0 -71.5 -12.5t-51 -33.5t-30.5 -49z" />
    <glyph glyph-name="Delta" unicode="&#x2206;" horiz-adv-x="662" 
d="M278 709h105l279 -709h-662zM522 90l-193 507l-190 -507h383z" />
    <glyph glyph-name="product" unicode="&#x220f;" horiz-adv-x="687" 
d="M90 0v709h507v-709h-95v622h-314v-622h-98z" />
    <glyph glyph-name="summation" unicode="&#x2211;" horiz-adv-x="567" 
d="M542 619h-365l269 -262l-278 -267h374v-90h-497v86l273 271l-273 266v86h497v-90z" />
    <glyph glyph-name="uni2215" unicode="&#x2215;" horiz-adv-x="404" 
d="M0 0l313 648h91l-313 -648h-91z" />
    <glyph glyph-name="uni2219" unicode="&#x2219;" horiz-adv-x="279" 
d="M139 354q29 0 49.5 -20.5t20.5 -49.5t-20.5 -49t-49.5 -20t-49 20t-20 49t20 49.5t49 20.5z" />
    <glyph glyph-name="radical" unicode="&#x221a;" horiz-adv-x="665" 
d="M700 780h-119l-266 -780h-91l-189 529h108l127 -374l235 713h195v-88z" />
    <glyph glyph-name="infinity" unicode="&#x221e;" horiz-adv-x="801" 
d="M45 290q0 36 13 67t36 53.5t55 35.5t70 13q50 0 95.5 -27t87.5 -80q45 53 87.5 80t92.5 27q38 0 70 -13t55 -35.5t36 -53.5t13 -67t-13 -67t-36 -53.5t-55 -35t-70 -12.5q-99 0 -183 106q-46 -51 -88 -78.5t-92 -27.5q-38 0 -70 12.5t-55 35t-36 53.5t-13 67zM153 353
q-25 -26 -25 -64t25 -63.5t68 -25.5q37 0 67.5 24.5t61.5 62.5q-32 39 -61.5 65.5t-67.5 26.5q-43 0 -68 -26zM513 354q-29 -26 -62 -64q32 -38 61.5 -64t67.5 -26q43 0 68 25.5t25 63.5t-25 64t-68 26q-38 0 -67 -25z" />
    <glyph glyph-name="integral" unicode="&#x222b;" horiz-adv-x="310" 
d="M36 -114q32 0 52.5 20.5t20.5 60.5v584q0 74 42 116t117 42h37v-86h-30q-33 0 -52.5 -19.5t-19.5 -59.5v-585q0 -74 -40.5 -116.5t-114.5 -42.5h-43v86h31z" />
    <glyph glyph-name="dotmath" unicode="&#x22c5;" horiz-adv-x="279" 
d="M139 354q29 0 49.5 -20.5t20.5 -49.5t-20.5 -49t-49.5 -20t-49 20t-20 49t20 49.5t49 20.5z" />
    <glyph glyph-name="uni24C5" unicode="&#x24c5;" horiz-adv-x="821" 
d="M552 15q-67 -30 -143 -30t-142 29.5t-115.5 79.5t-78 117.5t-28.5 143.5t28.5 143t78 117.5t115.5 79.5t142 29t143 -29t117 -79q49 -51 78 -118t29 -143t-29 -143.5t-78.5 -117.5t-116.5 -79zM612 144q39 39 61 93.5t22 117.5t-22 117t-61 94t-91 63q-52 22 -112 22
t-112 -22.5t-91 -62.5t-61 -94t-22 -117t22 -117.5t61 -94t91 -62.5t112 -23t112 23t91 63zM543 522q18 -18 28.5 -41.5t10.5 -50.5t-10.5 -50.5t-28.5 -41t-43 -27.5t-54 -10h-83v-144h-76v402h159q29 0 54 -10t43 -27zM486 476q-19 17 -53 17h-70v-126h70q34 0 53 17
t19 45q0 29 -19 47z" />
    <glyph glyph-name="filledbox" unicode="&#x25a0;" horiz-adv-x="921" 
d="M110 709h701v-709h-701v709z" />
    <glyph glyph-name="H22073" unicode="&#x25a1;" horiz-adv-x="921" 
d="M110 709h701v-709h-701v709zM192 75h537v558h-537v-558z" />
    <glyph glyph-name="triagup" unicode="&#x25b2;" horiz-adv-x="837" 
d="M420 724l417 -724h-837z" />
    <glyph glyph-name="uni25B3" unicode="&#x25b3;" horiz-adv-x="837" 
d="M420 724l417 -724h-837zM696 75l-277 486l-279 -486h556z" />
    <glyph glyph-name="lozenge" unicode="&#x25ca;" horiz-adv-x="556" 
d="M319 0h-82l-202 354l202 355h82l202 -355zM418 354l-140 243l-141 -243l141 -242z" />
    <glyph glyph-name="circle" unicode="&#x25cb;" horiz-adv-x="831" 
d="M560 696q67 -29 117.5 -79.5t79.5 -118t29 -144.5t-29 -144.5t-79.5 -117.5t-118 -79t-144.5 -29t-144.5 29t-117.5 79t-79 117.5t-29 144.5t29 144.5t79 118t117.5 79.5t144.5 29t145 -29zM415 63q60 0 112 23q52 22 91 61.5t61 92.5t22 114t-22 114t-61 92.5t-91 62
t-112 22.5t-112 -22.5t-91 -62t-61 -92.5t-22 -114t22 -114t61 -92.5t91 -62t112 -22.5z" />
    <glyph glyph-name="H18533" unicode="&#x25cf;" horiz-adv-x="831" 
d="M45 354q0 77 29 144.5t79 118t117.5 79.5t144.5 29t144.5 -29t118 -79.5t79.5 -118t29 -144.5t-29 -144.5t-79.5 -117.5t-118 -79t-144.5 -29t-144.5 29t-117.5 79t-79 117.5t-29 144.5z" />
    <glyph glyph-name="uni262E" unicode="&#x262e;" horiz-adv-x="821" 
d="M74 498q28 67 77.5 117.5t115.5 79.5t142 29t143 -29t116.5 -79.5t78.5 -117.5t29 -143t-29 -143.5t-78.5 -117.5t-116.5 -79.5t-143 -29.5t-142 29.5t-115.5 79.5t-78 117.5t-28.5 143.5t29 143zM449 648v-240l206 -207q19 34 29.5 72.5t10.5 81.5q0 57 -19 107.5
t-52 89t-78 63.5t-97 33zM193 552q-33 -39 -51.5 -89.5t-18.5 -107.5q0 -42 10 -80.5t29 -71.5l205 205v240q-53 -8 -97.5 -33t-76.5 -63zM212 137q31 -31 71 -50q39 -20 84 -26v231zM533 87q39 19 71 49l-155 156v-231q45 6 84 26z" />
    <glyph glyph-name="uni2713" unicode="&#x2713;" horiz-adv-x="970" 
d="M25 298l60 57l226 -247l574 621l60 -59l-638 -687z" />
    <glyph glyph-name="uni2715" unicode="&#x2715;" horiz-adv-x="756" 
d="M672 -5l-294 300l-294 -300l-59 59l294 301l-293 300l60 59l292 -299l292 299l60 -59l-294 -300l295 -301z" />
    <glyph glyph-name="uni2780" unicode="&#x2780;" horiz-adv-x="821" 
d="M74 498q28 67 77.5 117.5t115.5 79.5t142 29t143 -29t116.5 -79.5t78.5 -117.5t29 -143t-29 -143.5t-78.5 -117.5t-116.5 -79.5t-143 -29.5t-142 29.5t-115.5 79.5t-78 117.5t-28.5 143.5t29 143zM206 566q-39 -40 -61 -94t-22 -117t22 -117.5t61 -94t91 -62.5t112 -23
t112 23t91 62.5t61 94t22 117.5t-22 117t-61 94t-91 62.5t-112 22.5t-112 -22.5t-91 -62.5zM462 173h-77v245h-86v52q37 1 62 20.5t30 47.5h71v-365z" />
    <glyph glyph-name="uni2781" unicode="&#x2781;" horiz-adv-x="821" 
d="M552 15q-67 -30 -143 -30t-142 29.5t-115.5 79.5t-78 117.5t-28.5 143.5t28.5 143t78 117.5t115.5 79.5t142 29t143 -29t116.5 -79.5t78.5 -117.5t29 -143t-29 -143.5t-78.5 -117.5t-116.5 -79zM612 566q-39 40 -91 62.5t-112 22.5t-112 -22.5t-91 -62.5t-61 -94
t-22 -117t22 -117.5t61 -94t91 -62.5t112 -23t112 23t91 62.5t61 94.5q22 54 22 117t-22 117t-61 94zM374 263q-9 -9 -11 -20h175v-65h-268v13q0 45 20 81.5t65 63.5l60 37q43 26 43 63q0 20 -14 35t-40 15t-41.5 -16t-15.5 -42q0 -3 0.5 -11t2.5 -15h-74q-2 8 -2.5 16.5
t-0.5 14.5q0 24 9 45t26 37t41.5 25.5t55.5 9.5t55 -9.5t41 -25t26 -36.5t9 -44q0 -35 -19 -62.5t-51 -47.5l-72 -45q-11 -8 -20 -17z" />
    <glyph glyph-name="uni2782" unicode="&#x2782;" horiz-adv-x="821" 
d="M747 498q29 -67 29 -143t-29 -143.5t-78 -117.5q-50 -50 -117 -79.5t-143 -29.5t-142 29.5t-115.5 79.5t-78 117.5t-28.5 143.5t28.5 143t78 117.5t115.5 79.5t142 29t143 -29t116.5 -79.5t78.5 -117.5zM673 238q22 54 22 117t-22 117t-61 94t-91 62.5t-112 22.5
t-112 -22.5t-91 -62.5t-61 -94t-22 -117t22 -117.5t61 -94t91 -62.5t112 -23t112 23t91 62.5t61 94.5zM403 164q-33 0 -58 9t-43.5 23t-30 32.5t-15.5 38.5l67 27q5 -29 26.5 -46.5t52.5 -17.5t49.5 16t18.5 39q0 31 -21.5 43.5t-46.5 12.5q-8 0 -15.5 -1t-12.5 -3l-29 56
l95 79h-171v65h271v-63l-100 -80q21 -2 40.5 -9.5t34.5 -21t24 -33.5t9 -45t-10.5 -47t-29.5 -38.5t-45.5 -26t-59.5 -9.5z" />
    <glyph glyph-name="uni2783" unicode="&#x2783;" horiz-adv-x="821" 
d="M74 498q28 67 77.5 117.5t115.5 79.5t142 29t143 -29t116.5 -79.5t78.5 -117.5t29 -143t-29 -143.5t-78.5 -117.5t-116.5 -79.5t-143 -29.5t-142 29.5t-115.5 79.5t-78 117.5t-28.5 143.5t29 143zM206 566q-39 -40 -61 -94t-22 -117t22 -117.5t61 -94t91 -62.5t112 -23
t112 23t91 62.5t61 94t22 117.5t-22 117t-61 94t-91 62.5t-112 22.5t-112 -22.5t-91 -62.5zM497 543v-228h64v-65h-64v-72h-77v72h-185v73l177 220h85zM420 315v139l-111 -139h111z" />
    <glyph glyph-name="uni2784" unicode="&#x2784;" horiz-adv-x="821" 
d="M747 498q29 -67 29 -143t-29 -143.5t-78 -117.5q-50 -50 -117 -79.5t-143 -29.5t-142 29.5t-115.5 79.5t-78 117.5t-28.5 143.5t28.5 143t78 117.5t115.5 79.5t142 29t143 -29t116.5 -79.5t78.5 -117.5zM695 355q0 63 -22 117t-61 94t-91 62.5t-112 22.5t-112 -22.5
t-91 -62.5t-61 -94t-22 -117t22 -117.5t61 -94t91 -62.5t112 -23t112 23t91 62.5t61 94t22 117.5zM507 379q34 -32 34 -87q0 -27 -9.5 -50.5t-28 -41t-45.5 -27.5t-62 -10q-27 0 -50.5 8t-41.5 20.5t-30 29t-17 34.5l66 30q7 -26 26.5 -41.5t46.5 -15.5q29 0 48 16t19 45
q0 31 -19 46.5t-48 15.5q-20 0 -36 -7.5t-28 -19.5l-64 24l49 187h204v-66h-154l-23 -86q14 15 33.5 21.5t39.5 6.5q56 0 90 -32z" />
    <glyph glyph-name="uni2785" unicode="&#x2785;" horiz-adv-x="821" 
d="M669 616q49 -51 78 -118t29 -143t-29 -143.5t-78.5 -117.5t-116.5 -79q-67 -30 -143 -30t-142 29.5t-115.5 79.5t-78 117.5t-28.5 143.5t28.5 143t78 117.5t115.5 79.5t142 29t143 -29t117 -79zM673 238q22 54 22 117t-22 117t-61 94t-91 62.5t-112 22.5t-112 -22.5
t-91 -62.5t-61 -94t-22 -117t22 -117.5t61 -94t91 -62.5t112 -23t112 23t91 62.5t61 94.5zM261 259q-13 31 -13 74q0 49 14.5 88t40.5 67t61.5 43t77.5 15q25 0 48 -5t38 -14l-18 -57q-29 13 -62 13q-48 0 -81.5 -26.5t-41.5 -78.5q13 19 38 31t53 12q58 0 94 -33t36 -93
q0 -29 -11.5 -52.5t-31 -40.5t-46.5 -26.5t-58 -9.5q-28 0 -55 10t-48.5 30.5t-34.5 52.5zM447 247q21 16 21 47t-21 47t-47 16t-47.5 -16t-21.5 -47t21.5 -47t47.5 -16t47 16z" />
    <glyph glyph-name="uni2786" unicode="&#x2786;" horiz-adv-x="821" 
d="M74 498q28 67 77.5 117.5t115.5 79.5t142 29t143 -29t116.5 -79.5t78.5 -117.5t29 -143t-29 -143.5t-78.5 -117.5t-116.5 -79.5t-143 -29.5t-142 29.5t-115.5 79.5t-78 117.5t-28.5 143.5t29 143zM206 566q-39 -40 -61 -94t-22 -117t22 -117.5t61 -94t91 -62.5t112 -23
t112 23t91 62.5t61 94t22 117.5t-22 117t-61 94t-91 62.5t-112 22.5t-112 -22.5t-91 -62.5zM405 168h-82q7 75 29 130.5t46 93.5q28 44 61 75h-197v66h297v-69q-13 -9 -36 -30t-47 -56.5t-44 -87t-27 -122.5z" />
    <glyph glyph-name="uni2787" unicode="&#x2787;" horiz-adv-x="821" 
d="M552 15q-67 -30 -143 -30t-142 29.5t-115.5 79.5t-78 117.5t-28.5 143.5t28.5 143t78 117.5t115.5 79.5t142 29t143 -29t117 -79q49 -51 78 -118t29 -143t-29 -143.5t-78.5 -117.5t-116.5 -79zM673 238q22 54 22 117t-22 117t-61 94t-91 62.5t-112 22.5t-112 -22.5
t-91 -62.5t-61 -94t-22 -117t22 -117.5t61 -94t91 -62.5t112 -23t112 23t91 62.5t61 94.5zM553 274q0 -46 -37.5 -77t-107.5 -31t-107.5 31t-37.5 77q0 27 18 50.5t50 35.5q-27 11 -41.5 33t-14.5 47q0 47 37.5 76t95.5 29t95.5 -29t37.5 -76q0 -25 -14.5 -47t-41.5 -33
q32 -12 50 -35.5t18 -50.5zM341 280q0 -23 17 -36q17 -14 50 -14t50 13.5t17 36.5q0 22 -17.5 36t-49.5 14t-49.5 -14t-17.5 -36zM351 438q0 -22 16 -35q15 -13 41 -13t41.5 13t15.5 35q0 20 -15 32.5t-42 12.5t-42 -12.5t-15 -32.5z" />
    <glyph glyph-name="uni2788" unicode="&#x2788;" horiz-adv-x="821" 
d="M669 616q49 -51 78 -118t29 -143t-29 -143.5t-78.5 -117.5t-116.5 -79.5t-143 -29.5t-142 29.5t-115.5 79.5t-78 117.5t-28.5 143.5t28.5 143t78 117.5t115.5 79.5t142 29t143 -29t117 -79zM612 566q-39 40 -91 62.5t-112 22.5t-112 -22.5t-91 -62.5t-61 -94t-22 -117
t22 -117.5t61 -94t91 -62.5t112 -23t112 23t91 62.5t61 94t22 117.5t-22 117t-61 94zM263 415q0 28 12 52q11 24 30.5 41t46.5 26.5t58 9.5q28 0 54.5 -10t47.5 -30.5t34 -52t13 -74.5q0 -52 -14.5 -91.5t-40 -66.5t-60.5 -41t-77 -14q-25 0 -48 5t-38 14l18 59
q29 -13 62 -13q48 0 82.5 24.5t40.5 78.5q-13 -19 -38 -31t-53 -12q-57 0 -93.5 33.5t-36.5 92.5zM455 368q21 16 21 47t-21 47.5t-48 16.5t-47.5 -16.5t-20.5 -47.5t20.5 -47.5t47.5 -16.5t48 17z" />
    <glyph glyph-name="uniE000" unicode="&#xe000;" horiz-adv-x="814" 
d="M759 626h-497v-421h144l-185 -221l-186 221h144v504h580v-83z" />
    <glyph glyph-name="uniE021" unicode="&#xe021;" horiz-adv-x="1080" 
d="M914 354q0 -77 -29.5 -144t-79.5 -117t-117 -79t-143 -29q-50 0 -95.5 12t-86.5 35l37 74q32 -18 68.5 -28t75.5 -10q60 0 112 22.5t91 61t61 90.5t22 112h-138l179 210l179 -210h-136zM545 724q50 0 95.5 -12t86.5 -35l-37 -74q-32 18 -68.5 28t-75.5 10
q-60 0 -112 -22.5t-91 -61t-61 -90.5t-22 -112h143l-179 -210l-179 210h131q0 76 29.5 143.5t79.5 117.5t117 79t143 29z" />
    <glyph glyph-name="uniE002" unicode="&#xe002;" horiz-adv-x="949" 
d="M789 354q0 -77 -29 -144t-79 -117t-117.5 -79t-144.5 -29t-144 29t-117 79t-79 117t-29 144t29 144.5t79 117.5t117 79t144 29q50 0 95.5 -12t86.5 -35l-37 -74q-32 18 -68.5 28t-75.5 10q-60 0 -112 -22.5t-91 -61t-61 -91t-22 -112.5t22 -112.5t61 -91.5t91 -61.5
t112 -22.5t112 22.5t90.5 61.5t60.5 91.5t22 112.5h-144l179 210l179 -210h-130z" />
    <glyph glyph-name="f_f" unicode="&#xfb00;" horiz-adv-x="659" 
d="M20 396v85h89v81q0 40 12.5 71t34 52t50 31.5t61.5 10.5q24 0 38.5 -4t17.5 -6v-84q-4 2 -13.5 4t-27.5 2q-12 0 -25.5 -3.5t-25 -12.5t-18.5 -25t-7 -41v-76h219v81q0 40 12.5 71t34 52t50 31.5t61.5 10.5q24 0 38.5 -4t17.5 -6v-84q-4 2 -13.5 4t-27.5 2
q-12 0 -25.5 -3.5t-25 -12.5t-18.5 -25t-7 -41v-76h116v-85h-116v-396h-97v396h-219v-396h-97v396h-89z" />
    <glyph glyph-name="fi" unicode="&#xfb01;" horiz-adv-x="604" 
d="M206 396v-396h-97v396h-89v85h89v81q0 40 12.5 71t34 52t50 31.5t61.5 10.5q24 0 38.5 -4t17.5 -6v-84q-4 2 -13.5 4t-27.5 2q-12 0 -25.5 -3.5t-25 -12.5t-18.5 -24.5t-7 -40.5v-77h318v-481h-93v396h-225zM526 618q-20 -20 -49 -20q-28 0 -47.5 19.5t-19.5 47.5
q0 29 19.5 48.5t47.5 19.5q29 0 48.5 -19.5t19.5 -48.5q0 -28 -19 -47z" />
    <glyph glyph-name="fl" unicode="&#xfb02;" horiz-adv-x="602" 
d="M257 636q-14 -4 -25.5 -13t-18.5 -25t-7 -41v-76h222v243h94v-724h-94v396h-222v-396h-97v396h-89v85h89v81q0 40 12.5 71t34 52t50 31.5t61.5 10.5q24 0 38.5 -4t17.5 -6v-84q-4 2 -13.5 4t-27.5 2q-12 0 -25 -3z" />
    <glyph glyph-name="f_f_i" unicode="&#xfb03;" horiz-adv-x="920" 
d="M109 481v81q0 40 12.5 71t34 52t50 31.5t61.5 10.5q24 0 38.5 -4t17.5 -6v-84q-4 2 -13.5 4t-27.5 2q-12 0 -25.5 -3.5t-25 -12.5t-18.5 -25t-7 -41v-76h219v81q0 40 12.5 71t34 52t50 31.5t61.5 10.5q24 0 38.5 -4t17.5 -6v-84q-4 2 -13.5 4t-27.5 2q-12 0 -25.5 -3.5
t-25 -12.5t-18.5 -25t-7 -41v-76h318v-481h-93v396h-225v-396h-97v396h-219v-396h-97v396h-89v85h89zM726 665q0 29 19.5 48.5t47.5 19.5q29 0 48.5 -19.5t19.5 -48.5q0 -28 -19 -47q-20 -20 -49 -20q-28 0 -47.5 19.5t-19.5 47.5z" />
    <glyph glyph-name="f_f_l" unicode="&#xfb04;" horiz-adv-x="920" 
d="M109 481v81q0 40 12.5 71t34 52t50 31.5t61.5 10.5q24 0 38.5 -4t17.5 -6v-84q-4 2 -13.5 4t-27.5 2q-12 0 -25.5 -3.5t-25 -12.5t-18.5 -25t-7 -41v-76h219v81q0 40 12.5 71t34 52t50 31.5t61.5 10.5q24 0 38.5 -4t17.5 -6v-84q-4 2 -13.5 4t-27.5 2q-12 0 -25.5 -3.5
t-25 -12.5t-18.5 -25t-7 -41v-76h225v243h93v-724h-93v396h-225v-396h-97v396h-219v-396h-97v396h-89v85h89z" />
    <glyph glyph-name="uniFEFF" unicode="&#xfeff;" horiz-adv-x="0" 
 />
    <glyph glyph-name="zero.numr" horiz-adv-x="426" 
d="M213 276q-46 0 -73.5 17.5t-44.5 40.5q-20 27 -27.5 61t-7.5 70t7.5 70.5t27.5 61.5q17 23 44.5 40.5t73.5 17.5t74 -17q27 -18 44 -41q20 -27 27.5 -61.5t7.5 -70.5t-7.5 -70t-27.5 -61q-17 -23 -44.5 -40.5t-73.5 -17.5zM174 354q14 -12 39 -12t39.5 11.5t22.5 29.5
t10.5 40t2.5 42t-2.5 42t-10.5 40t-22.5 30t-39.5 12t-39.5 -11.5t-22.5 -29.5t-10.5 -40t-2.5 -43q0 -20 2.5 -42t10.5 -40t23 -29z" />
    <glyph glyph-name="one.numr" horiz-adv-x="303" 
d="M50 528v52q37 1 62 20.5t30 47.5h71v-365h-77v245h-86z" />
    <glyph glyph-name="two.numr" horiz-adv-x="389" 
d="M165 368q-9 -9 -11 -20h175v-65h-268v13q0 45 20 81.5t65 63.5l60 37q43 26 43 63q0 20 -14 35t-40 15t-41.5 -16t-15.5 -42q0 -3 0.5 -11t2.5 -15h-74q-2 8 -2.5 16.5t-0.5 14.5q0 24 9 45t26 37t41.5 25.5t55.5 9.5t55 -9.5t41 -25t26 -36.5t9 -44q0 -35 -19 -62.5
t-51 -47.5l-72 -45q-11 -8 -20 -17z" />
    <glyph glyph-name="three.numr" horiz-adv-x="412" 
d="M207 275q-33 0 -58 9t-43.5 23t-30 32.5t-15.5 38.5l67 27q5 -29 26.5 -46.5t52.5 -17.5t49.5 16t18.5 39q0 31 -21.5 43.5t-46.5 12.5q-8 0 -15.5 -1t-12.5 -3l-29 56l95 79h-171v65h271v-63l-100 -80q21 -2 40.5 -9.5t34.5 -21t24 -33.5t9 -45t-10.5 -47t-29.5 -38.5
t-45.5 -26t-59.5 -9.5z" />
    <glyph glyph-name="four.numr" horiz-adv-x="446" 
d="M322 283h-77v72h-185v73l177 220h85v-228h64v-65h-64v-72zM245 420v139l-111 -139h111z" />
    <glyph glyph-name="five.numr" horiz-adv-x="379" 
d="M247 357q19 16 19 45q0 31 -19 46.5t-48 15.5q-20 0 -36 -7.5t-28 -19.5l-64 24l49 187h204v-66h-154l-23 -86q14 15 33.5 21.5t39.5 6.5q56 0 90 -32t34 -87q0 -27 -9.5 -50.5t-28 -41t-45.5 -27.5t-62 -10q-27 0 -50.5 8t-41.5 20.5t-30 29t-17 34.5l66 30
q7 -26 26.5 -41.5t46.5 -15.5q29 0 48 16z" />
    <glyph glyph-name="six.numr" horiz-adv-x="418" 
d="M322 498q36 -33 36 -93q0 -29 -11.5 -52.5t-31 -40.5t-46.5 -26.5t-58 -9.5q-28 0 -55 10t-48.5 30.5t-34.5 52t-13 74.5q0 49 14.5 88t40.5 67t61.5 43t77.5 15q25 0 48 -5t38 -14l-18 -57q-29 13 -62 13q-48 0 -81.5 -26.5t-41.5 -78.5q13 19 38 31t53 12q58 0 94 -33z
M212 467q-26 0 -47.5 -16t-21.5 -47t21.5 -47t47.5 -16t47 16t21 47t-21 47t-47 16z" />
    <glyph glyph-name="seven.numr" horiz-adv-x="417" 
d="M357 579q-13 -9 -36 -30t-47 -56.5t-44 -87t-27 -122.5h-82q7 75 29 130.5t46 93.5q28 44 61 75h-197v66h297v-69z" />
    <glyph glyph-name="eight.numr" horiz-adv-x="410" 
d="M205 276q-70 0 -107.5 31t-37.5 77q0 27 18 50.5t50 35.5q-27 11 -41.5 33t-14.5 47q0 47 37.5 76t95.5 29t96 -29q37 -29 37 -76q0 -25 -14.5 -47t-41.5 -33q32 -12 50 -35q18 -24 18 -51q0 -46 -37.5 -77t-107.5 -31zM205 340q33 0 50 14q17 13 17 36q0 22 -17.5 36
t-49.5 14t-49.5 -14t-17.5 -36q0 -23 17 -36.5t50 -13.5zM163 581q-15 -13 -15 -33q0 -22 15.5 -35t41.5 -13t42 13q15 13 15 35q0 20 -15 32.5t-42 12.5t-42 -12z" />
    <glyph glyph-name="nine.numr" horiz-adv-x="416" 
d="M262 644q26 -10 47 -30.5t34 -52t13 -74.5q0 -52 -14.5 -91.5t-40 -66.5t-60.5 -41t-77 -14q-25 0 -48 5t-38 14l18 59q29 -13 62 -13q48 0 82.5 24.5t40.5 78.5q-13 -19 -38 -31t-53 -12q-57 0 -93.5 33.5t-36.5 92.5q0 28 11.5 52t31 41t46.5 26.5t58 9.5q28 0 55 -10z
M204 589q-27 0 -47.5 -16.5t-20.5 -47.5t20.5 -47.5t47.5 -16.5t48 16.5t21 47.5t-21 47.5t-48 16.5z" />
    <glyph glyph-name="zero.dnom" horiz-adv-x="426" 
d="M213 -6q-46 0 -73.5 17.5t-44.5 40.5q-20 27 -27.5 61t-7.5 70t7.5 70.5t27.5 61.5q17 23 44.5 40.5t73.5 17.5t74 -17q27 -18 44 -41q20 -27 27.5 -61.5t7.5 -70.5t-7.5 -70t-27.5 -61q-17 -23 -44.5 -40.5t-73.5 -17.5zM174 72q14 -12 39 -12t39.5 11.5t22.5 29.5
t10.5 40t2.5 42t-2.5 42t-10.5 40t-22.5 30t-39.5 12t-39.5 -11.5t-22.5 -29.5t-10.5 -40t-2.5 -43q0 -20 2.5 -42t10.5 -40t23 -29z" />
    <glyph glyph-name="one.dnom" horiz-adv-x="303" 
d="M50 246v52q37 1 62 20.5t30 47.5h71v-365h-77v245h-86z" />
    <glyph glyph-name="two.dnom" horiz-adv-x="389" 
d="M165 86q-9 -9 -11 -20h175v-65h-268v13q0 45 20 81.5t65 63.5l60 37q43 26 43 63q0 20 -14 35t-40 15t-41.5 -16t-15.5 -42q0 -3 0.5 -11t2.5 -15h-74q-2 8 -2.5 16.5t-0.5 14.5q0 24 9 45t26 37t41.5 25.5t55.5 9.5t55 -9.5t41 -25t26 -36.5t9 -44q0 -35 -19 -62.5
t-51 -47.5l-72 -45q-11 -8 -20 -17z" />
    <glyph glyph-name="three.dnom" horiz-adv-x="412" 
d="M207 -6q-33 0 -58 9t-43.5 23t-30 32.5t-15.5 38.5l67 27q5 -29 26.5 -46.5t52.5 -17.5t49.5 16t18.5 39q0 31 -21.5 43.5t-46.5 12.5q-8 0 -15.5 -1t-12.5 -3l-29 56l95 79h-171v65h271v-63l-100 -80q21 -2 40.5 -9.5t34.5 -21t24 -33.5t9 -45t-10.5 -47t-29.5 -38.5
t-45.5 -26t-59.5 -9.5z" />
    <glyph glyph-name="four.dnom" horiz-adv-x="446" 
d="M322 1h-77v72h-185v73l177 220h85v-228h64v-65h-64v-72zM245 138v139l-111 -139h111z" />
    <glyph glyph-name="five.dnom" horiz-adv-x="404" 
d="M247 75q19 16 19 45q0 31 -19 46.5t-48 15.5q-20 0 -36 -7.5t-28 -19.5l-64 24l49 187h204v-66h-154l-23 -86q14 15 33.5 21.5t39.5 6.5q56 0 90 -32t34 -87q0 -27 -9.5 -50.5t-28 -41t-45.5 -27.5t-62 -10q-27 0 -50.5 8t-41.5 20.5t-30 29t-17 34.5l66 30
q7 -26 26.5 -41.5t46.5 -15.5q29 0 48 16z" />
    <glyph glyph-name="six.dnom" horiz-adv-x="418" 
d="M322 216q36 -33 36 -93q0 -29 -11.5 -52.5t-31 -40.5t-46.5 -26.5t-58 -9.5q-28 0 -55 10t-48.5 30.5t-34.5 52t-13 74.5q0 49 14.5 88t40.5 67t61.5 43t77.5 15q25 0 48 -5t38 -14l-18 -57q-29 13 -62 13q-48 0 -81.5 -26.5t-41.5 -78.5q13 19 38 31t53 12q58 0 94 -33z
M212 185q-26 0 -47.5 -16t-21.5 -47t21.5 -47t47.5 -16t47 16t21 47t-21 47t-47 16z" />
    <glyph glyph-name="seven.dnom" horiz-adv-x="417" 
d="M357 297q-13 -9 -36 -30t-47 -56.5t-44 -87t-27 -122.5h-82q7 75 29 130.5t46 93.5q28 44 61 75h-197v66h297v-69z" />
    <glyph glyph-name="eight.dnom" horiz-adv-x="410" 
d="M205 -6q-70 0 -107.5 31t-37.5 77q0 27 18 50.5t50 35.5q-27 11 -41.5 33t-14.5 47q0 47 37.5 76t95.5 29t96 -29q37 -29 37 -76q0 -25 -14.5 -47t-41.5 -33q32 -12 50 -35q18 -24 18 -51q0 -46 -37.5 -77t-107.5 -31zM205 58q33 0 50 14q17 13 17 36q0 22 -17.5 36
t-49.5 14t-49.5 -14t-17.5 -36q0 -23 17 -36.5t50 -13.5zM163 299q-15 -13 -15 -33q0 -22 15.5 -35t41.5 -13t42 13q15 13 15 35q0 20 -15 32.5t-42 12.5t-42 -12z" />
    <glyph glyph-name="nine.dnom" horiz-adv-x="416" 
d="M262 364q26 -10 47 -30.5t34 -52t13 -74.5q0 -52 -14.5 -91.5t-40 -66.5t-60.5 -41t-77 -14q-25 0 -48 5t-38 14l18 59q29 -13 62 -13q48 0 82.5 24.5t40.5 78.5q-13 -19 -38 -31t-53 -12q-57 0 -93.5 33.5t-36.5 92.5q0 28 11.5 52t31 41t46.5 26.5t58 9.5q28 0 55 -10z
M204 309q-27 0 -47.5 -16.5t-20.5 -47.5t20.5 -47.5t47.5 -16.5t48 16.5t21 47.5t-21 47.5t-48 16.5z" />
    <glyph glyph-name="space.frac" horiz-adv-x="50" 
 />
    <glyph glyph-name="a.ordn" horiz-adv-x="428" 
d="M96 472q30 26 73 32l88 12q15 2 20.5 9t5.5 16q0 23 -16 39.5t-52 16.5q-33 0 -51.5 -18.5t-21.5 -46.5l-69 16q2 23 13 43t29.5 35t43.5 24t55 9q39 0 66 -10.5t44.5 -27.5t25 -40t7.5 -48v-169q0 -17 1.5 -34.5t2.5 -20.5h-71q-2 6 -3 17t-1 27q-11 -19 -37 -36.5
t-68 -17.5q-27 0 -48 8.5t-36 22.5t-23 32.5t-8 38.5q0 45 30 71zM141 405q0 -18 14 -32q13 -14 38 -14q18 0 34.5 4.5t29 15.5t19.5 29t7 44v15l-95 -15q-20 -3 -33.5 -14t-13.5 -33z" />
    <glyph glyph-name="b.ordn" horiz-adv-x="494" 
d="M335 314q-30 -14 -67 -14t-64 15t-43 41v-47h-73v507h74v-212q11 21 39.5 37.5t69.5 16.5q38 0 67.5 -14t49 -38t29.5 -56.5t10 -69.5q0 -38 -11 -71t-31 -57t-50 -38zM325 562q-26 29 -68 29t-69 -29t-27 -82t27 -83t69 -30t68 30t26 83t-26 82z" />
    <glyph glyph-name="c.ordn" horiz-adv-x="462" 
d="M303 391q10 9 16.5 20.5t9.5 21.5l67 -26q-6 -19 -19 -38.5t-32 -35t-45.5 -25t-59.5 -9.5q-37 0 -68.5 13.5t-55 37.5t-36.5 57t-13 72t13 72t36 57t54.5 37.5t68.5 13.5q34 0 60.5 -10t45.5 -25.5t31 -35.5t17 -40l-67 -26q-3 12 -9.5 24t-17 22t-25.5 16t-35 6
q-19 0 -36.5 -7.5t-31 -21.5t-21.5 -34.5t-8 -47.5q0 -54 29.5 -82.5t68.5 -28.5q21 0 36.5 6.5t26.5 16.5z" />
    <glyph glyph-name="d.ordn" horiz-adv-x="495" 
d="M293 317q-26 -17 -64 -17q-37 0 -67 14t-51 38t-32.5 57t-11.5 71q0 36 11.5 68t33 56.5t51 38.5t65.5 14q45 0 69 -16.5t32 -35.5v211h74v-445q0 -20 1 -38.5t2 -23.5h-72q-1 6 -2.5 18.5t-1.5 27.5q-11 -21 -37 -38zM330 480q0 51 -25 81q-26 29 -68 29t-68 -30
t-26 -80q0 -51 25 -82.5t69 -31.5q42 0 67.5 32t25.5 82z" />
    <glyph glyph-name="e.ordn" horiz-adv-x="461" 
d="M352 611q43 -49 43 -129q0 -10 -1 -16.5t-1 -7.5h-251q1 -41 29 -67.5t67 -26.5t59.5 18t29.5 45l64 -21q-14 -45 -53 -76t-100 -31q-34 0 -65 12t-55 35.5t-38 57t-14 76.5q0 40 14 73.5t36.5 56.5t52 36t61.5 13q78 0 122 -48zM231 595q-20 0 -35.5 -7t-26.5 -18.5
t-17.5 -25.5t-7.5 -29h174q-1 32 -23 56t-64 24z" />
    <glyph glyph-name="f.ordn" horiz-adv-x="350" 
d="M270 817q11 -3 14 -5v-65q-5 2 -11 3t-18 1q-8 0 -17.5 -2.5t-17 -8.5t-12.5 -16.5t-5 -27.5v-47h80v-67h-80v-274h-76v274h-61v67h61v50q0 58 32.5 89t83.5 31q16 0 27 -2z" />
    <glyph glyph-name="g.ordn" horiz-adv-x="465" 
d="M399 338q0 -33 -9 -64t-29.5 -55t-53 -38.5t-80.5 -14.5q-33 0 -61 9.5t-49 26.5t-34 40t-16 49l71 17q4 -33 27.5 -55t60.5 -22q99 0 99 105v40q-11 -21 -37 -36t-64 -15q-34 0 -62.5 12.5t-49.5 34t-32.5 52t-11.5 66.5q0 34 11.5 64t32 52.5t49 35.5t63.5 13
q40 0 65.5 -14t36.5 -37v44h73v-310zM144 490q0 -48 25 -75t67 -27q41 0 66 27.5t25 74.5q0 45 -25.5 72.5t-65.5 27.5q-41 0 -66.5 -27.5t-25.5 -72.5z" />
    <glyph glyph-name="h.ordn" horiz-adv-x="473" 
d="M385 524v-215h-75v202q0 33 -16 56t-58 23q-35 0 -53.5 -23.5t-19.5 -58.5v-199h-75v507h75v-203q18 24 44.5 34.5t54.5 10.5q31 0 54 -10.5t38.5 -28.5t23 -42.5t7.5 -52.5z" />
    <glyph glyph-name="i.ordn" horiz-adv-x="278" 
d="M176 309h-74v339h74v-339zM139 822q21 0 35.5 -15t14.5 -36t-14.5 -35.5t-35.5 -14.5t-35.5 14.5t-14.5 35.5t14.5 36t35.5 15z" />
    <glyph glyph-name="j.ordn" horiz-adv-x="297" 
d="M186 196q-26 -30 -72 -30q-19 0 -30.5 2t-13.5 3v62q5 -1 10 -1.5t13 -0.5q25 0 34.5 12.5t9.5 34.5v370h75v-375q0 -48 -26 -77zM224 772q0 -21 -14 -35q-15 -15 -36 -15t-35.5 14.5t-14.5 35.5t14.5 36t35.5 15t35.5 -15t14.5 -36z" />
    <glyph glyph-name="k.ordn" horiz-adv-x="430" 
d="M310 309l-104 143l-44 -45v-98h-74v507h74v-310l137 142h101l-141 -143l144 -196h-93z" />
    <glyph glyph-name="l.ordn" horiz-adv-x="251" 
d="M163 816v-507h-75v507h75z" />
    <glyph glyph-name="m.ordn" horiz-adv-x="681" 
d="M378 512v-203h-74v209q0 32 -16 52.5t-52 20.5q-34 0 -54 -22.5t-20 -57.5v-202h-74v339h71v-44q16 27 44.5 40.5t57.5 13.5q33 0 60.5 -15t40.5 -46q21 35 50 48t62 13q22 0 43.5 -7.5t38.5 -23.5t27 -40.5t10 -57.5v-220h-73v209q0 32 -16.5 52.5t-51.5 20.5
q-33 0 -53.5 -22.5t-20.5 -56.5z" />
    <glyph glyph-name="n.ordn" horiz-adv-x="473" 
d="M385 524v-215h-75v202q0 33 -16 56t-58 23q-35 0 -54 -25t-19 -60v-196h-75v339h73v-46q17 29 45 42.5t57 13.5q31 0 54 -10.5t38 -28.5t22.5 -42.5t7.5 -52.5z" />
    <glyph glyph-name="o.ordn" horiz-adv-x="484" 
d="M368 608q23 -24 36 -57t13 -72t-13 -72t-36.5 -57t-55.5 -37q-32 -14 -70 -14t-70.5 13.5t-55.5 37.5t-36 57t-13 72t13 72t36 57t55.5 37.5t70.5 13.5t70 -13.5t56 -37.5zM341 479q0 56 -30 84t-69 28q-40 0 -70 -28t-30 -84t30 -84.5t70 -28.5q39 0 69 28.5t30 84.5z
" />
    <glyph glyph-name="p.ordn" horiz-adv-x="494" 
d="M335 314q-30 -14 -67 -14q-38 0 -65 15t-41 35v-174h-74v472h73v-49q12 23 40.5 40t69.5 17q37 0 66.5 -13.5t49 -37.5t30 -56.5t10.5 -69.5q0 -38 -11 -70.5t-31.5 -56.5t-49.5 -38zM352 479q0 49 -26 80t-69 31q-42 0 -69 -31t-27 -80q0 -50 27 -81t69 -31t68.5 30.5
t26.5 81.5z" />
    <glyph glyph-name="q.ordn" horiz-adv-x="477" 
d="M333 600v48h72v-472h-74v176q-13 -23 -39.5 -37.5t-62.5 -14.5t-66 14t-51.5 38.5t-33 57t-11.5 70.5q0 36 11 68t32 56.5t50.5 38.5t66.5 14q45 0 70.5 -18.5t35.5 -38.5zM332 480q0 50 -26 80q-27 30 -69 30t-68 -30t-26 -80q0 -51 26 -82.5t68 -31.5t68.5 31.5
t26.5 82.5z" />
    <glyph glyph-name="r.ordn" horiz-adv-x="288" 
d="M266 651v-78q-15 3 -29 3q-39 0 -64.5 -23t-25.5 -79v-165h-75v339h73v-56q17 37 45.5 49t52.5 12q6 0 12 -0.5t11 -1.5z" />
    <glyph glyph-name="s.ordn" horiz-adv-x="401" 
d="M330 565l-64 -20q-1 7 -5 16t-11.5 17.5t-19.5 14t-30 5.5q-23 0 -37.5 -12.5t-14.5 -28.5q0 -15 9.5 -24.5t26.5 -13.5l53 -11q48 -11 72 -37.5t24 -64.5q0 -19 -8 -38t-23.5 -34.5t-39.5 -25t-56 -9.5q-36 0 -61.5 10.5t-42 25.5t-25 32.5t-10.5 32.5l67 20
q2 -25 20.5 -43t51.5 -18q26 0 40 12.5t14 29.5q0 31 -41 40l-54 12q-42 9 -65 35.5t-23 61.5q0 22 9.5 42t26 35t39 23.5t48.5 8.5q35 0 59 -10t39 -24.5t22.5 -31t9.5 -28.5z" />
    <glyph glyph-name="t.ordn" horiz-adv-x="324" 
d="M217 305q-45 0 -72 26t-27 73v177h-63v67h18q27 0 39.5 15t12.5 38v52h68v-105h72v-67h-72v-165q0 -23 10.5 -33.5t34.5 -10.5q13 0 27 3v-63q-4 -2 -17.5 -4.5t-30.5 -2.5z" />
    <glyph glyph-name="u.ordn" horiz-adv-x="440" 
d="M294 327q-1 12 -1 22q-14 -26 -41.5 -38t-56.5 -12q-30 0 -54 10.5t-40.5 29t-25 43t-8.5 52.5v214h75v-201q0 -33 17 -57t55 -24q37 0 56 22.5t19 57.5v202h75v-277q0 -21 1.5 -39.5t2.5 -22.5h-72q-2 6 -2 18z" />
    <glyph glyph-name="v.ordn" horiz-adv-x="404" 
d="M27 648h83l93 -250l91 250h80l-134 -339h-75z" />
    <glyph glyph-name="w.ordn" horiz-adv-x="603" 
d="M462 309h-76l-86 249l-85 -249h-78l-110 339h80l72 -242l84 242h77l84 -242l70 242h77z" />
    <glyph glyph-name="x.ordn" horiz-adv-x="413" 
d="M349 346q17 -24 26 -37h-89l-82 118q-2 -3 -14 -20.5t-26 -38.5t-26.5 -39t-14.5 -20h-86l124 172l-122 167h90l78 -113l77 113h87l-120 -166q9 -13 26 -36.5t35.5 -50t36.5 -49.5z" />
    <glyph glyph-name="y.ordn" horiz-adv-x="418" 
d="M173 348l-146 300h86l100 -222l96 222h79l-217 -478h-81z" />
    <glyph glyph-name="z.ordn" horiz-adv-x="409" 
d="M342 309h-275v66l178 207h-174v66h268v-64l-179 -209h182v-66z" />
    <glyph glyph-name="numbersign" unicode="#" 
d="M146 400h-89v81h106l36 167h88l-36 -167h116l36 167h88l-36 -167h97v-81h-114l-32 -150h97v-81h-115l-36 -169h-88l36 169h-116l-36 -169h-88l36 169h-88v81h106zM318 250l32 150h-116l-32 -150h116z" />
    <glyph glyph-name="dollar" unicode="$" 
d="M41 194l95 30q2 -24 10.5 -47t23.5 -42t37 -32.5t52 -18.5v209l-25 5q-77 16 -121.5 62t-44.5 120q0 36 14 68t39.5 57.5t60.5 42.5t77 22v105h78v-106q46 -6 79 -23t55 -40t34.5 -49.5t18.5 -50.5l-90 -33q-2 14 -9 30t-19 31t-29 27.5t-40 18.5v-205l15 -3
q84 -17 131 -67.5t47 -118.5q0 -33 -12.5 -65t-36.5 -58t-60 -43.5t-84 -23.5v-104h-78v104q-52 5 -91 24.5t-66 47t-42 60.5t-19 66zM409 120q23 26 23 61q0 32 -23 59q-23 26 -72 37v-193q49 9 72 36zM167 484q0 -32 20.5 -56.5t71.5 -34.5v190q-44 -8 -68 -35t-24 -64z
" />
    <glyph glyph-name="percent" unicode="%" 
d="M102 396q-25 10 -43.5 28t-29.5 42.5t-11 53.5q0 28 11 52t29.5 42t43.5 28.5t52 10.5t52 -10.5t44 -28.5t30 -42t11 -52q0 -29 -11 -53.5t-30 -42.5t-44 -28.5t-52 -10.5t-52 11zM405 260q27 0 52 -10.5t44 -28.5t30 -42t11 -52q0 -29 -11 -53.5t-30 -42.5t-44 -28.5
t-52 -10.5t-52 11q-25 10 -43.5 28t-29.5 42.5t-11 53.5q0 28 11 52t29.5 42t43.5 28.5t52 10.5zM526 540v-92l-482 -327v90zM112 563q-18 -17 -18 -43q0 -27 17.5 -44.5t42.5 -17.5q26 0 43.5 17.5t17.5 44.5q0 26 -17.5 43t-43.5 17q-25 0 -42 -17zM363 83q17 -18 42 -18
q26 0 43.5 17.5t17.5 44.5q0 26 -17.5 43t-43.5 17q-25 0 -42.5 -17t-17.5 -43q0 -27 18 -44z" />
    <glyph glyph-name="plus" unicode="+" 
d="M509 248h-188v-197h-82v197h-187v79h187v195h82v-195h188v-79z" />
    <glyph glyph-name="comma" unicode="," 
d="M215 128q24 23 60 23q37 0 65.5 -27t28.5 -83q0 -57 -17 -98t-42 -67.5t-55 -40.5t-57 -18v60q21 5 39 17t30 29t19.5 37t7.5 41q-2 -2 -9 -4t-16 -2q-33 0 -55.5 21t-22.5 58q0 31 24 54z" />
    <glyph glyph-name="period" unicode="." 
d="M280 154q33 0 56.5 -23.5t23.5 -56.5q0 -34 -23.5 -57t-56.5 -23q-34 0 -57 23t-23 57q0 33 23 56.5t57 23.5z" />
    <glyph glyph-name="zero" unicode="0" 
d="M394 636q49 -27 80 -74q31 -48 41.5 -109.5t10.5 -128.5t-10.5 -128.5t-41.5 -109.5q-31 -47 -80.5 -74t-113.5 -27t-113.5 27t-80.5 74q-31 48 -41.5 109.5t-10.5 128.5t10.5 128.5t41.5 109.5q31 47 80.5 74t113.5 27t114 -27zM280 72q52 0 82 26q29 25 44 62.5
t19 81.5t4 82q0 37 -4 81.5t-19 82t-44.5 63t-81.5 25.5t-81.5 -25.5t-44.5 -63t-19 -82t-4 -81.5q0 -38 4 -82t19 -81.5t44.5 -63t81.5 -25.5z" />
    <glyph glyph-name="one" unicode="1" 
d="M520 0h-415v88h163v369h-157v69q68 2 112 35.5t55 86.5h86v-560h156v-88z" />
    <glyph glyph-name="two" unicode="2" 
d="M507 0h-454q1 40 9.5 75t27 67t47.5 60.5t70 55.5l108 70q46 29 67.5 63t21.5 72q0 22 -7.5 42.5t-22.5 36.5t-38 25.5t-54 9.5q-32 0 -55.5 -10.5t-39 -28.5t-23 -42t-7.5 -52q0 -7 0.5 -14t1.5 -15l-98 12q-1 7 -1 14v12q0 42 15 80t43.5 67t70.5 46t95 17q52 0 93 -16
t69 -43t42.5 -63.5t14.5 -76.5q0 -64 -33 -114.5t-89 -85.5l-128 -82q-28 -18 -50 -39.5t-29 -51.5h333v-91z" />
    <glyph glyph-name="three" unicode="3" 
d="M491 560l-185 -171q36 0 71.5 -12t64 -36.5t46.5 -61.5t18 -87q0 -41 -15.5 -78.5t-45.5 -66.5t-73.5 -46t-100.5 -17q-56 0 -100 17t-74.5 45.5t-47.5 65t-19 76.5l96 22q1 -32 13 -58t31.5 -44t45 -28t54.5 -10q33 0 59 9.5t43 26t26 38.5t9 46q0 32 -11.5 55
t-30.5 37.5t-42.5 21.5t-47.5 7q-29 0 -57 -10l-48 81l191 176h-310v90h440v-88z" />
    <glyph glyph-name="four" unicode="4" 
d="M450 0h-95v146h-318v113l278 389h135v-411h101v-91h-101v-146zM355 237v317l-228 -317h228z" />
    <glyph glyph-name="five" unicode="5" 
d="M518 205q0 -46 -17 -86t-48 -70t-75 -47.5t-98 -17.5q-52 0 -94.5 15.5t-74 42t-50 61.5t-21.5 73l94 28q5 -60 45 -97t101 -37q29 0 54.5 9t44 26.5t29.5 41.5t11 54q0 33 -11.5 58.5t-30.5 42t-44.5 25t-53.5 8.5q-35 0 -66 -12.5t-52 -34.5q-26 10 -48.5 19.5
t-47.5 18.5l84 322h342v-90h-277l-48 -186q22 24 58 36t74 12q48 0 88 -15t69.5 -42.5t46 -67.5t16.5 -90z" />
    <glyph glyph-name="six" unicode="6" 
d="M38 285q0 90 25.5 160.5t70.5 119t106 73.5t132 25q45 0 81 -10t59 -26l-30 -80q-18 11 -48.5 19.5t-67.5 8.5q-51 0 -91.5 -17.5t-70 -48t-46.5 -73t-20 -92.5q20 32 63 57.5t108 25.5q48 0 89 -15t70.5 -43.5t46.5 -69.5t17 -93q0 -51 -20 -92t-53 -69.5t-76.5 -44
t-91.5 -15.5q-47 0 -92 17t-81 53t-58 93t-22 137zM164 265q-12 -26 -12 -59q0 -32 12 -57t31.5 -42.5t44.5 -27t52 -9.5q28 0 54 9t45 26.5t30.5 43t11.5 57.5q0 33 -11.5 58.5t-31 43t-45 26.5t-53.5 9t-53.5 -9t-44.5 -26.5t-30 -42.5z" />
    <glyph glyph-name="seven" unicode="7" 
d="M33 648h493v-94q-23 -18 -65.5 -58.5t-87.5 -108t-82 -163t-49 -224.5h-101q5 70 20 131.5t35 114t44.5 96t49.5 78.5q58 81 128 138h-385v90z" />
    <glyph glyph-name="eight" unicode="8" 
d="M45 171q0 60 36 102q35 41 87 58q-22 8 -41.5 23t-33.5 34.5t-22.5 43.5t-8.5 51q0 40 16.5 73t46 57t69 37t86.5 13q46 0 86 -13t69.5 -37t46 -57t16.5 -73q0 -53 -30.5 -94t-75.5 -58q52 -17 87.5 -58.5t35.5 -101.5q0 -39 -16 -73t-46 -59t-73.5 -39.5t-99.5 -14.5
t-99.5 14.5t-73.5 39.5t-46 59t-16 73zM280 70q66 0 101 31.5t35 77.5q0 47 -35.5 79t-100.5 32t-100.5 -32t-35.5 -79q0 -46 35 -77.5t101 -31.5zM160 478q0 -48 34 -76.5t86 -29.5q52 1 86 29.5t34 76.5q0 44 -32.5 74t-87.5 30t-87.5 -30t-32.5 -74z" />
    <glyph glyph-name="nine" unicode="9" 
d="M27 439q0 50 20 92q19 41 52 70.5t76 45.5t91 16t93 -17.5t80.5 -54t57 -92.5t21.5 -134q0 -89 -20 -159.5t-60.5 -119.5t-101 -75t-142.5 -26q-19 0 -40 3t-41.5 8t-38.5 12t-30 15l32 81q21 -13 53.5 -22t64.5 -9q59 0 101 18t69 49t40 72.5t15 89.5q-17 -32 -59.5 -57
t-108.5 -25q-42 0 -82.5 14t-72 42t-50.5 68.5t-19 94.5zM126 441q0 -33 11.5 -58.5t31 -43t44.5 -26.5t53 -9q27 0 52 9.5t44.5 27t31.5 43t12 57.5q0 31 -12 56.5t-31.5 43t-44.5 27t-52 9.5t-52.5 -9.5t-45 -27t-31 -42.5t-11.5 -57z" />
    <glyph glyph-name="colon" unicode=":" 
d="M203 65q0 32 22 54.5t54 22.5t54.5 -22.5t22.5 -54.5q0 -31 -22.5 -53.5t-54.5 -22.5t-54 22.5t-22 53.5zM203 412q0 32 22 54.5t54 22.5t54.5 -22.5t22.5 -54.5q0 -31 -22.5 -53.5t-54.5 -22.5t-54 22.5t-22 53.5z" />
    <glyph glyph-name="semicolon" unicode=";" 
d="M288 -1q-6 -1 -15 -1q-29 0 -50 19t-21 53q0 28 22 49.5t56 21.5q33 0 59 -25t26 -76q0 -53 -15 -90.5t-38.5 -62t-51 -37.5t-51.5 -17v56q19 4 35 15t27.5 27t18.5 34.5t7 37.5q-3 -2 -9 -4zM280 336q-32 0 -54 22.5t-22 53.5q0 32 22 54.5t54 22.5t55 -22
q22 -23 22 -55q0 -31 -22 -53q-23 -23 -55 -23z" />
    <glyph glyph-name="less" unicode="&#x3c;" 
d="M486 535v-95l-310 -153l310 -153v-95l-412 205v85z" />
    <glyph glyph-name="equal" unicode="=" 
d="M512 230v-79h-463v79h463zM49 346v77h463v-77h-463z" />
    <glyph glyph-name="greater" unicode="&#x3e;" 
d="M386 287l-312 153v95l412 -206v-85l-412 -205v95z" />
    <glyph glyph-name="cent" unicode="&#xa2;" 
d="M77 413q14 39 39 69.5t60 50.5t76 28v88h76v-86q38 -4 67.5 -17.5t50.5 -33t34.5 -43t20.5 -46.5l-81 -33q-4 13 -11 27.5t-18 27t-26.5 22t-36.5 14.5v-307q23 4 39.5 14.5t28.5 23t19 26t10 25.5l80 -33q-8 -22 -22.5 -45t-36.5 -42.5t-51.5 -33t-66.5 -17.5v-92h-76
v94q-42 7 -77 28t-59.5 52t-38.5 70t-14 84q0 46 14 85zM184 426q-28 -38 -28 -98t27 -98t69 -52v299q-41 -14 -68 -51z" />
    <glyph glyph-name="sterling" unicode="&#xa3;" 
d="M54 95q51 21 80.5 59.5t29.5 80.5q0 22 -4 38h-100v86h70q-11 25 -20.5 54t-9.5 64q0 40 14.5 74t41 59t62 39t77.5 14q58 0 96 -16.5t61.5 -42.5t33.5 -57.5t12 -61.5l-98 -17q-1 56 -29 82.5t-74 26.5q-40 0 -69.5 -25.5t-29.5 -74.5q0 -30 9.5 -59t23.5 -59h184v-86
h-158q1 -7 1.5 -13.5t0.5 -13.5q0 -53 -25 -94.5t-70 -64.5h171q25 0 43.5 9t30 23.5t17 33.5t5.5 40l94 -14q0 -39 -11.5 -72t-32.5 -56.5t-52 -37t-70 -13.5h-305v95z" />
    <glyph glyph-name="currency" unicode="&#xa4;" 
d="M106 121q-17 26 -26 55.5t-9 62.5q0 34 10 64.5t27 56.5l-75 77l60 59l75 -78q26 17 55 26t61 9q60 0 111 -31l72 74l60 -59l-70 -73q19 -26 30 -58t11 -67t-10.5 -66.5t-29.5 -56.5l69 -71l-59 -59l-70 72q-25 -16 -54 -24.5t-60 -8.5q-33 0 -63 10t-56 27l-73 -76
l-59 59zM164 186q10 -25 28 -42.5t41.5 -27t50.5 -9.5t50.5 9.5t40.5 27t27 42t10 53.5t-10 53t-27 41.5t-40.5 27t-50.5 9.5t-50.5 -9.5t-41.5 -27t-28 -41.5t-10 -53t10 -53z" />
    <glyph glyph-name="yen" unicode="&#xa5;" 
d="M334 0h-97v155h-169v72h169v80h-169v71h117l-171 270h114l157 -261l149 261h112l-163 -270h119v-71h-168v-80h168v-72h-168v-155z" />
    <glyph glyph-name="section" unicode="&#xa7;" horiz-adv-x="558" 
d="M470 620q13 -34 13 -73l-90 -18q0 56 -27 90t-82 34q-48 0 -77.5 -26t-29.5 -69q0 -55 60 -86l103 -54q28 -15 53 -31t44.5 -36t31 -45.5t11.5 -58.5q0 -23 -8 -43t-20 -36.5t-27 -28t-29 -17.5q42 -26 65 -64.5t23 -80.5t-16.5 -76t-45 -58t-65.5 -37t-78 -13
q-48 0 -84.5 13.5t-61.5 38t-37.5 59t-13.5 75.5l89 18q0 -55 27 -90t83 -35q47 0 76.5 24.5t29.5 70.5q0 28 -16 50.5t-43 36.5l-104 54q-28 14 -53 30t-44 36t-30.5 45.5t-11.5 59.5q0 23 8 43.5t20.5 36.5t27.5 27.5t29 16.5q-43 26 -66 65t-23 81t16.5 76t45 57.5
t65.5 36.5t78 13q48 0 85 -14.5t61.5 -39.5t37.5 -58zM240 206l100 -54q17 8 32.5 29.5t15.5 50.5q0 28 -14.5 49t-49.5 39l-100 54q-17 -8 -32.5 -30t-15.5 -50t14.5 -49t49.5 -39z" />
    <glyph glyph-name="logicalnot" unicode="&#xac;" 
d="M28 344v82h463v-277h-84v195h-379z" />
    <glyph glyph-name="plusminus" unicode="&#xb1;" 
d="M321 386h178v-77h-178v-134h-82v134h-177v77h177v136h82v-136zM62 51v79h437v-79h-437z" />
    <glyph glyph-name="multiply" unicode="&#xd7;" 
d="M449 55l-170 175l-168 -174l-56 56l169 176l-168 174l57 57l167 -174l167 174l57 -56l-169 -175l170 -176z" />
    <glyph glyph-name="divide" unicode="&#xf7;" 
d="M508 246h-457v83h457v-83zM343 465q0 -26 -19 -45.5t-45 -19.5t-45.5 19.5t-19.5 45.5t19.5 45t45.5 19t45 -19t19 -45zM324 65q-19 -20 -45 -20t-45.5 19.5t-19.5 45.5t19.5 45t45.5 19t45 -19t19 -45t-19 -45z" />
    <glyph glyph-name="florin" unicode="&#x192;" 
d="M533 646q-11 3 -24 5t-29 2q-13 0 -27.5 -2.5t-27.5 -12t-24 -28t-17 -49.5l-16 -80h129v-83h-146l-82 -411q-8 -38 -24 -65.5t-38.5 -45t-49 -26t-53.5 -8.5q-31 0 -47 2.5t-30 7.5v83q11 -3 24.5 -5t31.5 -2q13 0 27.5 3t27.5 12.5t24 27.5t17 49l75 378h-110v83h127
l23 113q7 38 23.5 65.5t39 45t49 26t53.5 8.5q29 0 44.5 -2.5t29.5 -7.5v-83z" />
    <glyph glyph-name="uni2007.tf" 
 />
    <glyph glyph-name="uni2008.tf" 
 />
    <glyph glyph-name="perthousand" unicode="&#x2030;" 
d="M507 191q16 -16 26 -37.5t10 -46.5t-10 -46.5t-26.5 -37.5t-38 -25t-45.5 -9q-53 0 -86 38q-33 -38 -85 -38q-24 0 -46 9t-38.5 25t-26 37.5t-9.5 46.5t9.5 46.5t26 37.5t38.5 25t46 9q25 0 47 -10.5t38 -27.5q16 17 38 27.5t48 10.5q24 0 45.5 -9t38.5 -25zM53 620
q16 16 38 25t46 9t45.5 -9t38 -25t26.5 -37.5t10 -46.5t-10 -46.5t-26.5 -37.5t-38 -25t-45.5 -9t-46 9t-38.5 25t-25.5 38q-10 21 -10 46t9.5 46.5t26.5 37.5zM528 540l-482 -376v90l482 378v-92zM461 68q15 15 15 39t-15 39.5t-38 15.5t-39 -15.5t-16 -39.5t16 -39.5
t39 -15.5t38 16zM98 497q16 -16 39 -16t38 15.5t15 39.5t-15 39.5t-38 15.5t-39 -15.5t-16 -39.5t16 -39zM213 68q16 -16 39 -16t38 15.5t15 39.5t-15 39.5t-38 15.5t-39 -15.5t-16 -39.5t16 -39z" />
    <glyph glyph-name="Euro" unicode="&#x20ac;" 
d="M43 443h89q18 55 50.5 96.5t74 69t89.5 41t96 13.5q41 0 63 -4.5t45 -12.5l-23 -82q-11 3 -31.5 7.5t-53.5 4.5q-68 0 -124 -32.5t-84 -100.5h257l-24 -78h-252q-3 -17 -3 -40q0 -14 0.5 -25t2.5 -18h235l-24 -80h-190q29 -66 84.5 -97t121.5 -31q33 0 54 4.5t31 7.5
l23 -82q-23 -8 -45 -12.5t-63 -4.5q-48 0 -95 13.5t-88.5 40t-74 67t-50.5 94.5h-91v80h74q-1 5 -1.5 18.5t-0.5 24.5t0.5 23.5t1.5 16.5h-74v78z" />
    <glyph glyph-name="minus" unicode="&#x2212;" 
d="M491 327v-79h-423v79h423z" />
    <glyph glyph-name="approxequal" unicode="&#x2248;" 
d="M283 137l-47 26q-32 17 -62 17q-52 0 -91 -45l-53 47q29 42 65 63.5t78 21.5q26 0 50.5 -8t52.5 -23l46 -25q35 -20 70 -20q49 0 86 44l51 -45q-28 -40 -65 -61.5t-81 -21.5q-48 0 -100 30zM283 331l-47 26q-32 17 -62 17q-52 0 -91 -45l-53 47q29 42 65 63.5t78 21.5
q26 0 50.5 -8t52.5 -23l46 -25q35 -20 70 -20q49 0 86 44l51 -45q-28 -40 -65 -61.5t-81 -21.5q-48 0 -100 30z" />
    <glyph glyph-name="notequal" unicode="&#x2260;" 
d="M439 423h72v-77h-129l-85 -116h214v-79h-272l-74 -100h-96l74 100h-95v79h153l85 116h-238v77h295l73 99h96z" />
    <glyph glyph-name="lessequal" unicode="&#x2264;" 
d="M486 451l-307 -104l307 -104v-84l-412 145v85l412 146v-84zM486 130v-79h-412v79h412z" />
    <glyph glyph-name="greaterequal" unicode="&#x2265;" 
d="M486 304l-412 -145v84l307 104l-307 104v84l412 -146v-85zM486 130v-79h-412v79h412z" />
    <glyph glyph-name="parenleft.case" horiz-adv-x="297" 
d="M297 745q-38 -42 -68 -85.5t-50.5 -91.5t-31.5 -101.5t-11 -114.5q0 -62 11 -115t31.5 -101t50.5 -91.5t68 -85.5l-55 -49q-38 38 -72 84.5t-59.5 101.5t-40.5 118.5t-15 137.5q0 73 15 137t40.5 119t59.5 101.5t72 84.5z" />
    <glyph glyph-name="parenright.case" horiz-adv-x="297" 
d="M242 352q0 -74 -15 -137.5t-40.5 -118.5t-59.5 -101.5t-72 -84.5l-55 49q38 42 68 85.5t50.5 91.5t31.5 101t11 115q0 61 -11 114.5t-31.5 101.5t-50.5 91.5t-68 85.5l55 49q38 -38 72 -84.5t59.5 -101.5t40.5 -119t15 -137z" />
    <glyph glyph-name="hyphen.case" horiz-adv-x="361" 
d="M316 378v-82h-271v82h271z" />
    <glyph glyph-name="bracketleft.case" horiz-adv-x="288" 
d="M283 800v-76h-111v-739h111v-75h-193v890h193z" />
    <glyph glyph-name="bracketright.case" horiz-adv-x="288" 
d="M116 -15v739h-111v76h193v-890h-193v75h111z" />
    <glyph glyph-name="braceleft.case" horiz-adv-x="353" 
d="M237 90q0 -55 21 -80t77 -25h13v-75h-13q-88 0 -134 46t-46 140v114q0 28 -9 47t-24 31t-35 17.5t-42 5.5v86q22 0 42 5.5t35 17.5t24 31t9 47v116q0 94 46 140t134 46h13v-75h-13q-56 0 -77 -25t-21 -80v-143q0 -51 -28 -82.5t-76 -40.5q48 -9 76 -40.5t28 -82.5v-141z
" />
    <glyph glyph-name="braceright.case" horiz-adv-x="353" 
d="M198 614v-116q0 -28 9 -47t24 -31t35 -17.5t42 -5.5v-86q-22 0 -42 -5.5t-35 -17.5t-24 -31t-9 -47v-114q0 -94 -46 -140t-134 -46h-13v75h13q56 0 77 25t21 80v141q0 51 28 82.5t76 40.5q-48 9 -76 40.5t-28 82.5v143q0 55 -21 80t-77 25h-13v75h13q88 0 134 -46
t46 -140z" />
    <glyph glyph-name="exclamdown.case" horiz-adv-x="311" 
d="M189 505l25 -505h-118l26 505h67zM202 601q-20 -19 -47 -19t-46 19t-19 46t19 46.5t46 19.5t46.5 -19.5t19.5 -46.5t-19 -46z" />
    <glyph glyph-name="guillemotleft.case" horiz-adv-x="471" 
d="M358 531h93l-131 -191l131 -191h-93l-133 191zM163 531h93l-131 -191l131 -191h-93l-133 191z" />
    <glyph glyph-name="uni00AD.case" horiz-adv-x="361" 
d="M316 395v-82h-271v82h271z" />
    <glyph glyph-name="guillemotright.case" horiz-adv-x="471" 
d="M215 149l131 191l-131 191h93l133 -191l-133 -191h-93zM113 531l133 -191l-133 -191h-93l131 191l-131 191h93z" />
    <glyph glyph-name="questiondown.case" horiz-adv-x="510" 
d="M35 188q0 60 29 102.5t73 71.5l46 31q23 16 33.5 41.5t10.5 54.5v10q0 4 -1 9h88q1 -9 1 -17v-18q0 -50 -19 -88t-64 -68l-44 -30q-26 -17 -39.5 -43t-13.5 -55q0 -22 7.5 -42.5t22 -36.5t37 -25.5t52.5 -9.5q33 0 56.5 11t38.5 29t22.5 41t7.5 47q0 13 -2 27t-5 22
l97 -12q6 -21 6 -48q0 -35 -13 -71t-40 -66t-68.5 -49t-99.5 -19q-53 0 -93.5 17t-68.5 45t-42.5 64.5t-14.5 74.5zM204 650q0 27 20 46q19 19 46 19t46 -19t19 -46t-19 -46.5t-46 -19.5t-46.5 19.5t-19.5 46.5z" />
    <glyph glyph-name="endash.case" horiz-adv-x="622" 
d="M568 378v-82h-512v82h512z" />
    <glyph glyph-name="emdash.case" horiz-adv-x="1083" 
d="M1019 378v-82h-953v82h953z" />
    <glyph glyph-name="guilsinglleft.case" horiz-adv-x="276" 
d="M30 340l133 191h93l-131 -191l131 -191h-93z" />
    <glyph glyph-name="guilsinglright.case" horiz-adv-x="276" 
d="M151 340l-131 191h93l133 -191l-133 -191h-93z" />
    <glyph glyph-name="G.ss01" horiz-adv-x="767" 
d="M727 314q0 -68 -20.5 -127.5t-61.5 -104.5t-102 -71t-142 -26q-67 0 -131 24.5t-114 71.5t-80.5 116t-30.5 158t30.5 157.5t80.5 115.5t114 71.5t131 24.5q59 0 110.5 -16t92.5 -45t69.5 -71t42.5 -93l-91 -31q-23 82 -80.5 124t-143.5 42q-50 0 -96 -17t-81.5 -52
t-57 -87.5t-21.5 -122.5q0 -71 21.5 -123.5t57 -87.5t81.5 -52.5t96 -17.5q49 0 89 14t68.5 38t46 56.5t22.5 68.5h-286v88h385q1 -6 1 -12v-13z" />
    <glyph glyph-name="a.ss02" horiz-adv-x="583" 
d="M513 0h-91q-2 8 -3.5 25.5t-1.5 39.5v8q-17 -35 -54.5 -60.5t-94.5 -25.5q-53 0 -95 20t-71.5 55t-45.5 81.5t-16 100.5q0 51 16.5 96.5t46.5 79.5t72 54t93 20q32 0 56.5 -7t42.5 -18.5t30 -26t18 -29.5v68h93v-392q0 -32 2 -57t3 -32zM277 70q32 0 58 13.5t44 36.5
t27.5 55t9.5 69q0 75 -36.5 121t-101.5 46t-103.5 -46t-38.5 -121q0 -37 9.5 -69t27.5 -55t44 -36.5t60 -13.5z" />
    <glyph glyph-name="agrave.ss02" horiz-adv-x="583" 
d="M513 0h-91q-2 8 -3.5 25.5t-1.5 39.5v8q-17 -35 -54.5 -60.5t-94.5 -25.5q-53 0 -95 20t-71.5 55t-45.5 81.5t-16 100.5q0 51 16.5 96.5t46.5 79.5t72 54t93 20q32 0 56.5 -7t42.5 -18.5t30 -26t18 -29.5v68h93v-392q0 -32 2 -57t3 -32zM277 70q32 0 58 13.5t44 36.5
t27.5 55t9.5 69q0 75 -36.5 121t-101.5 46t-103.5 -46t-38.5 -121q0 -37 9.5 -69t27.5 -55t44 -36.5t60 -13.5zM112 689h118l86 -146h-78z" />
    <glyph glyph-name="aacute.ss02" horiz-adv-x="583" 
d="M513 0h-91q-2 8 -3.5 25.5t-1.5 39.5v8q-17 -35 -54.5 -60.5t-94.5 -25.5q-53 0 -95 20t-71.5 55t-45.5 81.5t-16 100.5q0 51 16.5 96.5t46.5 79.5t72 54t93 20q32 0 56.5 -7t42.5 -18.5t30 -26t18 -29.5v68h93v-392q0 -32 2 -57t3 -32zM277 70q32 0 58 13.5t44 36.5
t27.5 55t9.5 69q0 75 -36.5 121t-101.5 46t-103.5 -46t-38.5 -121q0 -37 9.5 -69t27.5 -55t44 -36.5t60 -13.5zM213 543l87 146h118l-126 -146h-79z" />
    <glyph glyph-name="acircumflex.ss02" horiz-adv-x="583" 
d="M513 0h-91q-2 8 -3.5 25.5t-1.5 39.5v8q-17 -35 -54.5 -60.5t-94.5 -25.5q-53 0 -95 20t-71.5 55t-45.5 81.5t-16 100.5q0 51 16.5 96.5t46.5 79.5t72 54t93 20q32 0 56.5 -7t42.5 -18.5t30 -26t18 -29.5v68h93v-392q0 -32 2 -57t3 -32zM277 70q32 0 58 13.5t44 36.5
t27.5 55t9.5 69q0 75 -36.5 121t-101.5 46t-103.5 -46t-38.5 -121q0 -37 9.5 -69t27.5 -55t44 -36.5t60 -13.5zM231 684h107l104 -139h-88l-70 81l-70 -81h-87z" />
    <glyph glyph-name="atilde.ss02" horiz-adv-x="583" 
d="M513 0h-91q-2 8 -3.5 25.5t-1.5 39.5v8q-17 -35 -54.5 -60.5t-94.5 -25.5q-53 0 -95 20t-71.5 55t-45.5 81.5t-16 100.5q0 51 16.5 96.5t46.5 79.5t72 54t93 20q32 0 56.5 -7t42.5 -18.5t30 -26t18 -29.5v68h93v-392q0 -32 2 -57t3 -32zM277 70q32 0 58 13.5t44 36.5
t27.5 55t9.5 69q0 75 -36.5 121t-101.5 46t-103.5 -46t-38.5 -121q0 -37 9.5 -69t27.5 -55t44 -36.5t60 -13.5zM358 644q7 9 7 33h71v-15q0 -56 -27.5 -82.5t-69.5 -26.5q-20 0 -36 6.5t-30 15.5l-14 9q-10 6 -18.5 10t-18.5 4q-14 0 -21.5 -9t-7.5 -34h-72v15q0 56 28 82.5
t70 26.5q20 0 36.5 -6.5t30.5 -15.5l14 -9q10 -6 18 -10t18 -4q15 0 22 10z" />
    <glyph glyph-name="adieresis.ss02" horiz-adv-x="583" 
d="M513 0h-91q-2 8 -3.5 25.5t-1.5 39.5v8q-17 -35 -54.5 -60.5t-94.5 -25.5q-53 0 -95 20t-71.5 55t-45.5 81.5t-16 100.5q0 51 16.5 96.5t46.5 79.5t72 54t93 20q32 0 56.5 -7t42.5 -18.5t30 -26t18 -29.5v68h93v-392q0 -32 2 -57t3 -32zM277 70q32 0 58 13.5t44 36.5
t27.5 55t9.5 69q0 75 -36.5 121t-101.5 46t-103.5 -46t-38.5 -121q0 -37 9.5 -69t27.5 -55t44 -36.5t60 -13.5zM334 662q-17 -17 -17 -41q0 -25 16.5 -41.5t41.5 -16.5q24 0 41 16.5t17 41.5q0 24 -17 41t-41 17q-25 0 -41 -17zM130 621q0 -25 17 -41q16 -17 40 -17
q25 0 42 16.5t17 41.5q0 24 -17 41t-42 17q-24 0 -40.5 -17t-16.5 -41z" />
    <glyph glyph-name="aring.ss02" horiz-adv-x="583" 
d="M513 0h-91q-2 8 -3.5 25.5t-1.5 39.5v8q-17 -35 -54.5 -60.5t-94.5 -25.5q-53 0 -95 20t-71.5 55t-45.5 81.5t-16 100.5q0 51 16.5 96.5t46.5 79.5t72 54t93 20q32 0 56.5 -7t42.5 -18.5t30 -26t18 -29.5v68h93v-392q0 -32 2 -57t3 -32zM277 70q32 0 58 13.5t44 36.5
t27.5 55t9.5 69q0 75 -36.5 121t-101.5 46t-103.5 -46t-38.5 -121q0 -37 9.5 -69t27.5 -55t44 -36.5t60 -13.5zM353 719q15 -15 24 -35t9 -43t-9 -43t-24 -34.5t-35 -22.5q-21 -9 -44 -9q-22 0 -42 8.5t-35.5 23t-24.5 34.5t-9 43t9 43t24.5 35t35.5 23.5t42 8.5
q23 0 43.5 -8.5t35.5 -23.5zM322 641q0 20 -14 34.5t-35 14.5q-20 0 -33.5 -14.5t-13.5 -34.5t13.5 -34t33.5 -14q21 0 35 14t14 34z" />
    <glyph glyph-name="r.ss03" horiz-adv-x="330" 
d="M174 0h-94v481h94v-481zM316 415q0 -29 -20.5 -49.5t-49.5 -20.5q-30 0 -50.5 20.5t-20.5 49.5q0 30 20.5 50.5t50.5 20.5q29 0 49.5 -20.5t20.5 -50.5z" />
    <glyph glyph-name="ampersand.ss04" horiz-adv-x="677" 
d="M65 194q0 39 13 71q12 32 32 56t46.5 40.5t54.5 24.5q-47 17 -79 55.5t-32 99.5q0 38 16 71.5t43.5 58t65.5 39t83 14.5q57 0 97.5 -16.5t67 -43.5t39.5 -61.5t16 -71.5l-96 -17q-4 57 -34 89.5t-89 32.5q-22 0 -42 -7.5t-35 -20.5t-23.5 -31.5t-8.5 -40.5
q0 -26 10.5 -45.5t26.5 -32.5t35 -19t36 -6h13v-90q-25 0 -52.5 -7t-50.5 -23.5t-38 -43.5t-15 -67q0 -24 10 -47t29.5 -40.5t49 -28.5t68.5 -11q73 0 114 42.5t41 115.5v10h-90v89h275v-89h-86v-10q0 -51 -16.5 -96t-49 -78.5t-80 -53.5t-109.5 -20q-58 0 -105 15.5
t-80.5 43t-52 66t-18.5 84.5z" />
    <glyph glyph-name="one.ss05" horiz-adv-x="465" 
d="M460 0h-415v88h163v369h-157v69q68 2 112 35.5t55 86.5h86v-560h156v-88z" />
    <glyph glyph-name="registered.ss06" horiz-adv-x="429" 
d="M348 393q-26 -26 -60.5 -41t-73.5 -15t-73.5 15t-60 40.5t-40.5 60t-15 73.5t15 73.5t40.5 60t60 40.5t73.5 15t73.5 -15t60.5 -40.5t41 -60t15 -73.5t-15 -73.5t-41 -59.5zM314 628q-19 19 -44.5 30t-55.5 11t-55.5 -11t-44 -30.5t-29.5 -45.5t-11 -56t11 -56
t29.5 -45.5t44 -30.5t55.5 -11t55.5 11t44.5 30.5t30 45.5t11 56t-11 56t-30 46zM242 430l-30 65h-15v-65h-52v196h83q29 0 48.5 -19.5t19.5 -45.5q0 -19 -10 -33.5t-26 -22.5l36 -75h-54zM243 561q0 11 -7 17q-8 5 -19 5h-20v-46h20q11 0 18.5 6.5t7.5 17.5z" />
    <glyph glyph-name="caron.alt" horiz-adv-x="203" 
d="M35 530l28 179h105l-64 -179h-69z" />
    <glyph glyph-name="commaaccent" horiz-adv-x="194" 
d="M53 697q-18 -14 -18 -38q0 -26 15.5 -38.5t38.5 -12.5q10 0 15 2.5t6 3.5q-2 -18 -20.5 -33t-44.5 -15v-40q20 0 40.5 6.5t37 20.5t26.5 35t10 50q0 20 -6 34t-15.5 22.5t-21 12.5t-22.5 4q-23 0 -41 -14z" />
    <glyph glyph-name="commaturn" horiz-adv-x="172" 
d="M25 607q0 27 10 48t26.5 35t37 21.5t40.5 7.5v-40q-26 0 -44.5 -15t-20.5 -33q1 1 6.5 3.5t14.5 2.5q24 0 39 -13.5t15 -37.5t-17 -38t-42 -14q-11 0 -22 4t-21 12.5t-16 22.5t-6 34z" />
    <glyph glyph-name="dieresis.narrow" horiz-adv-x="294" 
d="M179 660q-15 -16 -15 -39t15 -38t38 -15t38.5 15t15.5 38t-15.5 38.5t-38.5 15.5t-38 -15zM23 621q0 -23 15 -38t38 -15t38.5 15t15.5 38t-15.5 38.5t-38.5 15.5t-38 -15.5t-15 -38.5z" />
    <glyph glyph-name="dieresis.uc.narrow" horiz-adv-x="310" 
d="M25 819q0 -23 15 -38q15 -16 38 -16t38.5 15.5t15.5 38.5t-15.5 38t-38.5 15t-38 -15t-15 -38zM194 857q-16 -15 -16 -38t15.5 -38.5t38.5 -15.5t38 15.5t15 38.5t-15 38t-38 15t-38 -15z" />
    <glyph glyph-name="grave.uc" horiz-adv-x="273" 
d="M18 878h129l102 -119h-93z" />
    <glyph glyph-name="dieresis.uc" horiz-adv-x="407" 
d="M29 819q0 -25 17 -42t42 -17t42 17t17 42t-17 42t-42 17t-42 -17t-17 -42zM277 861q-17 -17 -17 -42t17 -42t42 -17t42 17t17 42t-17 42t-42 17t-42 -17z" />
    <glyph glyph-name="macron.uc" horiz-adv-x="343" 
d="M318 862v-83h-293v83h293z" />
    <glyph glyph-name="acute.uc" horiz-adv-x="273" 
d="M24 759l101 119h130l-137 -119h-94z" />
    <glyph glyph-name="circumflex.uc" horiz-adv-x="403" 
d="M141 878h120l117 -119h-92l-85 64l-81 -64h-91z" />
    <glyph glyph-name="caron.uc" horiz-adv-x="403" 
d="M29 878h91l81 -64l85 64h92l-117 -119h-120z" />
    <glyph glyph-name="breve.uc" horiz-adv-x="371" 
d="M301 795q-20 -19 -48.5 -30t-66.5 -11t-66.5 11t-48 29.5t-30.5 41.5t-12 47h81q1 -9 5 -18.5t13 -18t23.5 -14t34.5 -5.5t34 5.5t23 14t13 18t5 18.5h81q-2 -24 -12 -47t-29 -41z" />
    <glyph glyph-name="dotaccent.uc" horiz-adv-x="177" 
d="M88 882q-26 0 -44.5 -19t-18.5 -45t18.5 -44.5t44.5 -18.5t45 18.5t19 44.5t-19 45t-45 19z" />
    <glyph glyph-name="ring.uc" horiz-adv-x="273" 
d="M215 926q15 -15 24 -35t9 -43t-9 -43t-24 -34.5t-35 -22.5q-21 -9 -44 -9q-22 0 -42 8.5t-35.5 23t-24.5 34.5t-9 43t9 43t24.5 35t35.5 23.5t42 8.5q23 0 43.5 -8.5t35.5 -23.5zM183 848q0 20 -14 33.5t-34 13.5t-33 -13.5t-13 -33.5t13 -33t33 -13t34 13t14 33z" />
    <glyph glyph-name="tilde.uc" horiz-adv-x="373" 
d="M273 846q9 7 9 27v8h67v-16q0 -56 -27 -83.5t-69 -27.5q-22 0 -39 6t-32 17l-15 10q-10 6 -18.5 10t-18.5 4q-16 0 -25.5 -10.5t-9.5 -33.5h-68v16q0 56 27.5 83.5t69.5 27.5q21 0 39.5 -7t33.5 -16l15 -9q11 -6 19.5 -10t18.5 -4q13 0 23 8z" />
    <glyph glyph-name="hungarumlaut.uc" horiz-adv-x="367" 
d="M237 878h105l-106 -119h-70zM95 759h-70l61 119h105z" />
    <glyph glyph-name="caron.alt.uc" horiz-adv-x="203" 
d="M35 519l30 190h111l-68 -190h-73z" />
    <glyph glyph-name="undercommaaccent" horiz-adv-x="174" 
d="M43 -51q18 15 41 15q22 0 43.5 -16.5t21.5 -56.5q0 -29 -10 -50t-26.5 -35t-37 -20.5t-40.5 -6.5v40q26 0 44.5 15t20.5 33q-2 -2 -8 -4t-13 -2q-23 0 -38.5 12.5t-15.5 38.5q0 23 18 37z" />
    </font>
</defs>
</svg>
